<?xml version="1.0" standalone="no"?>
<!DOCTYPE svg PUBLIC "-//W3C//DTD SVG 1.1//EN" "http://www.w3.org/Graphics/SVG/1.1/DTD/svg11.dtd" >
<svg xmlns="http://www.w3.org/2000/svg">
<metadata>
<json>
<![CDATA[
{
	"fontFamily": "matomo",
	"majorVersion": 1,
	"minorVersion": 0,
	"fontURL": "https://matomo.org",
	"description": "Matomo\nFont generated by IcoMoon.",
	"version": "Version 1.0",
	"fontId": "matomo",
	"psName": "matomo",
	"subFamily": "Regular",
	"fullName": "matomo"
}
]]>
</json>
</metadata>
<defs>
<font id="matomo" horiz-adv-x="1024">
<font-face units-per-em="1024" ascent="960" descent="-64" />
<missing-glyph horiz-adv-x="1024" />
<glyph unicode="&#x20;" horiz-adv-x="512" d="" />
<glyph unicode="&#xe01f;" glyph-name="fast-forward" data-tags="icon-fast-forward" d="M538.093 815.618c15.969 7.81 34.996 5.843 49.025-5.071l418.895-325.809c11.339-8.815 17.971-22.374 17.971-36.737s-6.633-27.922-17.971-36.742l-418.895-325.807c-14.029-10.91-33.056-12.879-49.025-5.068-15.965 7.81-26.093 24.035-26.093 41.81v651.614c0 17.777 10.128 34 26.093 41.811zM605.087 678.641v-461.285l296.54 230.643-296.54 230.641zM26.113 815.618c15.969 7.81 34.992 5.843 49.024-5.071l418.893-325.809c11.339-8.815 17.971-22.374 17.971-36.737s-6.633-27.922-17.971-36.742l-418.893-325.807c-14.032-10.91-33.055-12.879-49.024-5.068s-26.095 24.035-26.095 41.81v651.614c0 17.777 10.125 34 26.095 41.811zM93.105 678.641v-461.285l296.539 230.643-296.539 230.641z" />
<glyph unicode="&#xe020;" glyph-name="fast-rewind" data-tags="icon-fast-rewind" d="M485.908 815.612c15.965-7.811 26.092-24.034 26.092-41.81v-651.603c0-17.774-10.127-34-26.092-41.809-15.969-7.809-34.996-5.842-49.024 5.068l-418.89 325.802c-11.337 8.82-17.969 22.378-17.969 36.741s6.631 27.921 17.969 36.737l418.89 325.803c14.028 10.914 33.055 12.882 49.024 5.071zM122.38 448l296.534-230.639v461.277l-296.534-230.637zM997.881 815.612c15.965-7.811 26.092-24.034 26.092-41.81v-651.603c0-17.774-10.127-34-26.092-41.809-15.969-7.809-34.996-5.842-49.024 5.068l-418.888 325.802c-11.338 8.82-17.971 22.378-17.971 36.741s6.632 27.921 17.971 36.737l418.888 325.803c14.028 10.914 33.055 12.882 49.024 5.071zM634.352 448l296.535-230.639v461.277l-296.535-230.637z" />
<glyph unicode="&#xe035;" glyph-name="pause" data-tags="icon-pause" d="M113.794 903.092c0 31.417 25.47 56.887 56.887 56.887h227.547c31.419 0 56.887-25.47 56.887-56.887v-910.185c0-31.419-25.468-56.887-56.887-56.887h-227.547c-31.417 0-56.887 25.468-56.887 56.887v910.185zM227.568 846.206v-796.411h113.773v796.411h-113.773zM568.887 903.092c0 31.417 25.468 56.887 56.887 56.887h227.547c31.419 0 56.887-25.47 56.887-56.887v-910.185c0-31.419-25.468-56.887-56.887-56.887h-227.547c-31.419 0-56.887 25.468-56.887 56.887v910.185zM682.66 846.206v-796.411h113.773v796.411h-113.773z" />
<glyph unicode="&#xe038;" glyph-name="play" data-tags="icon-play" d="M129.066 953.739c16.439 8.975 36.467 8.257 52.222-1.871l716.802-460.799c14.653-9.421 23.512-25.646 23.512-43.069s-8.857-33.649-23.512-43.069l-716.802-460.8c-15.755-10.127-35.782-10.844-52.222-1.868s-26.665 26.209-26.665 44.939v921.6c0 18.73 10.226 35.964 26.665 44.939zM204.8 815.019v-734.035l570.916 367.016-570.916 367.019z" />
<glyph unicode="&#xe042;" glyph-name="replay" data-tags="icon-replay" d="M695.164 947.503c16.661 16.662 43.678 16.662 60.339 0l170.667-170.667c16.661-16.663 16.661-43.677 0-60.34l-170.667-170.667c-16.661-16.661-43.678-16.661-60.339 0-16.661 16.663-16.661 43.677 0 60.34l140.497 140.497-140.497 140.497c-16.661 16.663-16.661 43.678 0 60.34zM298.667 704c-33.948 0-66.505-13.486-90.51-37.49s-37.49-56.562-37.49-90.51v-85.333c0-23.565-19.103-42.667-42.667-42.667s-42.667 19.102-42.667 42.667v85.333c0 56.579 22.476 110.842 62.484 150.849s94.27 62.484 150.849 62.484h597.333c23.565 0 42.667-19.103 42.667-42.667s-19.102-42.667-42.667-42.667h-597.333zM328.837 350.17c16.662-16.661 16.662-43.678 0-60.339l-140.497-140.497 140.497-140.497c16.662-16.661 16.662-43.678 0-60.339s-43.677-16.661-60.34 0l-170.667 170.667c-16.662 16.661-16.662 43.678 0 60.339l170.667 170.667c16.663 16.661 43.677 16.661 60.34 0zM896 448c23.565 0 42.667-19.102 42.667-42.667v-85.333c0-56.58-22.477-110.844-62.485-150.848-40.004-40.009-94.268-62.485-150.848-62.485h-597.333c-23.564 0-42.667 19.102-42.667 42.667s19.103 42.667 42.667 42.667h597.333c33.946 0 66.505 13.487 90.509 37.491s37.491 56.563 37.491 90.509v85.333c0 23.565 19.102 42.667 42.667 42.667z" />
<glyph unicode="&#xe044;" glyph-name="skip-next" data-tags="icon-skip-next" d="M89.135 954.384c19.711 9.473 43.105 6.811 60.183-6.851l568.889-455.109c13.495-10.797 21.351-27.141 21.351-44.424s-7.856-33.627-21.351-44.424l-568.889-455.111c-17.076-13.659-40.472-16.321-60.183-6.849s-32.245 29.405-32.245 51.273v910.221c0 21.868 12.536 41.801 32.245 51.273zM170.667 784.747v-673.495l420.932 336.748-420.932 336.747zM910.223 903.111c31.42 0 56.889-25.471 56.889-56.889v-796.444c0-31.42-25.469-56.889-56.889-56.889s-56.889 25.469-56.889 56.889v796.444c0 31.419 25.469 56.889 56.889 56.889z" />
<glyph unicode="&#xe045;" glyph-name="skip-previous" data-tags="icon-skip-previous" d="M934.867 954.384c19.712-9.473 32.244-29.405 32.244-51.273v-910.221c0-21.868-12.532-41.801-32.244-51.273s-43.105-6.809-60.183 6.849l-568.889 455.111c-13.495 10.797-21.351 27.141-21.351 44.424s7.856 33.627 21.351 44.424l568.889 455.109c17.079 13.661 40.471 16.324 60.183 6.851zM432.401 448l420.932-336.748v673.495l-420.932-336.747zM113.777 903.111c31.419 0 56.889-25.471 56.889-56.889v-796.444c0-31.42-25.471-56.889-56.889-56.889s-56.889 25.469-56.889 56.889v796.444c0 31.419 25.471 56.889 56.889 56.889z" />
<glyph unicode="&#xe047;" glyph-name="stop" data-tags="icon-stop" d="M153.613 857.584c-28.276 0-51.198-22.923-51.198-51.198v-716.773c0-28.277 22.923-51.198 51.198-51.198h716.773c28.277 0 51.198 22.922 51.198 51.198v716.773c0 28.276-22.922 51.198-51.198 51.198h-716.773zM0.019 806.387c0 84.827 68.767 153.594 153.594 153.594h716.773c84.83 0 153.594-68.767 153.594-153.594v-716.773c0-84.83-68.765-153.594-153.594-153.594h-716.773c-84.827 0-153.594 68.765-153.594 153.594v716.773z" />
<glyph unicode="&#xe050;" glyph-name="audio" data-tags="icon-audio" d="M485.616 815.801c16.129-7.752 26.384-24.061 26.384-41.954v-651.691c0-17.894-10.254-34.204-26.384-41.954s-35.271-5.572-49.245 5.604l-219.996 175.998h-169.869c-25.708 0-46.55 20.84-46.55 46.55v279.296c0 25.708 20.841 46.55 46.55 46.55h169.869l219.996 175.997c13.975 11.178 33.115 13.357 49.245 5.606zM418.902 676.994l-157.118-125.695c-8.253-6.603-18.509-10.2-29.078-10.2h-139.648v-186.198h139.648c10.57 0 20.825-3.598 29.078-10.199l157.118-125.698v457.99zM808.194 810.039c18.183 18.176 47.657 18.172 65.834-0.010 95.99-96.022 149.917-226.239 149.917-362.015s-53.927-265.993-149.917-362.015c-18.177-18.183-47.653-18.187-65.834-0.010-18.177 18.177-18.183 47.648-0.010 65.83 78.542 78.566 122.662 185.104 122.662 296.194s-44.119 217.631-122.662 296.194c-18.173 18.182-18.168 47.655 0.010 65.831zM643.875 645.72c18.183 18.176 47.657 18.172 65.834-0.010 52.358-52.376 81.774-123.403 81.774-197.463s-29.415-145.085-81.774-197.463c-18.177-18.183-47.653-18.187-65.834-0.010-18.177 18.177-18.183 47.648-0.010 65.83 34.908 34.916 54.518 82.271 54.518 131.641 0 49.375-19.611 96.725-54.518 131.642-18.173 18.182-18.168 47.655 0.010 65.831z" />
<glyph unicode="&#xe0cb;" glyph-name="overlay" data-tags="icon-overlay" d="M335.651 652.793c-15.709 0-28.444-12.734-28.444-28.444v-557.488c0-15.712 12.734-28.446 28.444-28.446h557.488c15.712 0 28.446 12.733 28.446 28.446v557.488c0 15.709-12.733 28.444-28.446 28.444h-557.488zM204.812 624.349c0 72.261 58.578 130.84 130.84 130.84h557.488c72.261 0 130.842-58.578 130.842-130.84v-557.488c0-72.261-58.581-130.842-130.842-130.842h-557.488c-72.261 0-130.84 58.581-130.84 130.842v557.488zM130.859 857.584c-15.709 0-28.444-12.734-28.444-28.444v-557.488c0-15.712 12.734-28.446 28.444-28.446 28.276 0 51.198-22.922 51.198-51.198s-22.923-51.198-51.198-51.198c-72.261 0-130.84 58.581-130.84 130.842v557.488c0 72.261 58.578 130.84 130.84 130.84h557.488c72.261 0 130.842-58.578 130.842-130.84 0-28.276-22.922-51.198-51.198-51.198s-51.198 22.923-51.198 51.198c0 15.709-12.733 28.444-28.446 28.444h-557.488z" />
<glyph unicode="&#xe2c6;" glyph-name="upload" data-tags="icon-upload" d="M51.235 345.608c28.275 0 51.197-22.921 51.197-51.197v-204.785c0-13.577 5.394-26.602 14.995-36.201s22.623-14.995 36.201-14.995h716.746c13.577 0 26.602 5.396 36.201 14.995s14.995 22.623 14.995 36.201v204.785c0 28.276 22.921 51.197 51.197 51.197s51.197-22.921 51.197-51.197v-204.785c0-40.737-16.183-79.8-44.986-108.603s-67.866-44.986-108.603-44.986h-716.746c-40.735 0-79.8 16.183-108.604 44.986s-44.985 67.871-44.985 108.603v204.785c0 28.276 22.922 51.197 51.197 51.197zM475.799 944.967c19.992 19.993 52.41 19.993 72.401 0l255.98-255.98c19.992-19.994 19.992-52.408 0-72.403s-52.41-19.993-72.401 0l-219.78 219.78-219.779-219.78c-19.994-19.993-52.408-19.993-72.403 0s-19.993 52.408 0 72.403l255.982 255.98zM512 959.962c28.276 0 51.197-22.922 51.197-51.197v-614.354c0-28.276-22.921-51.197-51.197-51.197s-51.197 22.921-51.197 51.197v614.354c0 28.275 22.921 51.197 51.197 51.197z" />
<glyph unicode="&#xe600;" glyph-name="alien" data-tags="ico-alien" d="M576 874.667c0-35.346-28.654-64-64-64s-64 28.654-64 64c0 35.346 28.654 64 64 64s64-28.654 64-64zM480 842.667h64v-128h-64v128zM897.024-85.333h-770.048c-70.144 0-126.976 56.832-126.976 126.976v0c0 70.144 56.832 126.976 126.976 126.976h769.984c70.144 0 126.976-56.832 126.976-126.976v0c0.064-70.144-56.768-126.976-126.912-126.976zM512 746.667c-194.432 0-352-157.568-352-352v-160h704v160c0 194.432-157.568 352-352 352zM384 330.667c-52.992 0-96 43.008-96 96s43.008 96 96 96 96-43.008 96-96-43.008-96-96-96zM640 330.667c-52.992 0-96 43.008-96 96s43.008 96 96 96 96-43.008 96-96-43.008-96-96-96z" />
<glyph unicode="&#xe601;" glyph-name="annotation" data-tags="icon-annotation" d="M153.626 857.569c-13.578 0-26.6-5.394-36.201-14.995s-14.995-22.623-14.995-36.201v-695.541l117.387 117.387c9.602 9.599 22.623 14.995 36.201 14.995h614.354c13.577 0 26.602 5.396 36.201 14.995s14.995 22.623 14.995 36.201v511.962c0 13.578-5.396 26.6-14.995 36.201s-22.623 14.995-36.201 14.995h-716.746zM45.024 914.976c28.804 28.804 67.869 44.985 108.604 44.985h716.746c40.737 0 79.8-16.182 108.603-44.985s44.986-67.869 44.986-108.604v-511.962c0-40.737-16.183-79.8-44.986-108.603s-67.866-44.986-108.603-44.986h-593.148l-189.79-189.79c-14.643-14.643-36.662-19.025-55.793-11.099s-31.604 26.591-31.604 47.3v819.139c0 40.735 16.182 79.8 44.985 108.604z" />
<glyph unicode="&#xe602;" glyph-name="arrow-left" data-tags="icon-arrow-left" d="M0.036 448c0 35.345 28.652 63.996 63.996 63.996h895.937c35.345 0 63.996-28.651 63.996-63.996s-28.651-63.996-63.996-63.996h-895.937c-35.344 0-63.996 28.651-63.996 63.996zM557.252 941.221c24.99-24.993 24.99-65.511 0-90.504l-402.717-402.717 402.717-402.717c24.99-24.99 24.99-65.512 0-90.502s-65.512-24.99-90.502 0l-447.969 447.969c-24.991 24.99-24.991 65.512 0 90.502l447.969 447.969c24.99 24.991 65.512 24.991 90.502 0z" />
<glyph unicode="&#xe603;" glyph-name="arrow-right" data-tags="icon-arrow-right" d="M0.036 448c0 35.345 28.652 63.996 63.996 63.996h895.937c35.345 0 63.996-28.651 63.996-63.996s-28.651-63.996-63.996-63.996h-895.937c-35.344 0-63.996 28.651-63.996 63.996zM466.748 941.221c24.99 24.991 65.512 24.991 90.502 0l447.969-447.969c24.99-24.99 24.99-65.512 0-90.502l-447.969-447.969c-24.99-24.99-65.512-24.99-90.502 0s-24.99 65.512 0 90.502l402.717 402.717-402.717 402.717c-24.99 24.993-24.99 65.511 0 90.504z" />
<glyph unicode="&#xe604;" glyph-name="business" data-tags="icon-business" d="M170.667 704c-70.187 0-128-57.813-128-128v-426.667c0-70.188 57.814-128 128-128h682.667c70.187 0 128 57.813 128 128v426.667c0 70.186-57.812 128-128 128h-682.667zM170.667 618.667h682.667c24.071 0 42.667-18.596 42.667-42.667v-426.667c0-24.072-18.594-42.667-42.667-42.667h-682.667c-24.070 0-42.667 18.595-42.667 42.667v426.667c0 24.070 18.597 42.667 42.667 42.667zM426.667 874.667c-33.931 0-66.507-13.506-90.5-37.5s-37.5-56.569-37.5-90.5v-682.667c0-23.564 19.103-42.667 42.667-42.667v0c23.564 0 42.667 19.103 42.667 42.667v0 682.667c0 11.332 4.487 22.154 12.5 30.167s18.834 12.5 30.167 12.5h170.667c11.33 0 22.152-4.485 30.167-12.5 8.013-8.012 12.5-18.834 12.5-30.167v-682.667c0-23.564 19.103-42.667 42.667-42.667v0c23.564 0 42.667 19.103 42.667 42.667v0 682.667c0 33.931-13.505 66.506-37.5 90.5-23.993 23.992-56.57 37.5-90.5 37.5h-170.667z" />
<glyph unicode="&#xe605;" glyph-name="calendar" data-tags="icon-calendar" d="M186.181 773.819c-25.706 0-46.546-20.84-46.546-46.546v-651.636c0-25.707 20.84-46.546 46.546-46.546h651.636c25.707 0 46.546 20.839 46.546 46.546v651.636c0 25.706-20.839 46.546-46.546 46.546h-651.636zM46.545 727.273c0 77.119 62.518 139.636 139.636 139.636h651.636c77.121 0 139.636-62.518 139.636-139.636v-651.636c0-77.121-62.516-139.636-139.636-139.636h-651.636c-77.119 0-139.636 62.516-139.636 139.636v651.636zM698.182 960c25.707 0 46.546-20.84 46.546-46.546v-186.182c0-25.706-20.839-46.546-46.546-46.546s-46.546 20.84-46.546 46.546v186.182c0 25.706 20.839 46.546 46.546 46.546zM325.818 960c25.706 0 46.546-20.84 46.546-46.546v-186.182c0-25.706-20.84-46.546-46.546-46.546s-46.546 20.84-46.546 46.546v186.182c0 25.706 20.84 46.546 46.546 46.546zM46.545 541.091c0 25.706 20.84 46.546 46.546 46.546h837.818c25.707 0 46.546-20.84 46.546-46.546s-20.839-46.546-46.546-46.546h-837.818c-25.706 0-46.546 20.839-46.546 46.546z" />
<glyph unicode="&#xe606;" glyph-name="chart-bar" data-tags="icon-chart-bar" d="M853.305 618.652c31.417 0 56.885-25.469 56.885-56.885v-568.842c0-31.417-25.467-56.885-56.885-56.885s-56.885 25.467-56.885 56.885v568.842c0 31.416 25.467 56.885 56.885 56.885zM512 959.957c31.417 0 56.885-25.469 56.885-56.885v-910.147c0-31.417-25.467-56.885-56.885-56.885s-56.885 25.467-56.885 56.885v910.147c0 31.416 25.467 56.885 56.885 56.885zM170.695 391.115c31.416 0 56.885-25.467 56.885-56.885v-341.305c0-31.417-25.469-56.885-56.885-56.885s-56.885 25.467-56.885 56.885v341.305c0 31.417 25.469 56.885 56.885 56.885z" />
<glyph unicode="&#xe607;" glyph-name="chart-line-details" data-tags="ico-chart-line-details" d="M832 938.667h-640c-106.048 0-192-85.952-192-192v-640c0-106.048 85.952-192 192-192h640c106.048 0 192 85.952 192 192v640c0 106.048-85.952 192-192 192zM896 106.667c0-35.264-28.736-64-64-64h-640c-35.264 0-64 28.736-64 64v208.32c29.888 13.504 77.312 38.4 154.304 80.32 33.152-57.472 94.528-96.64 165.696-96.64 36.544 0 70.4 10.752 99.456 28.544l143.296-143.296c17.664-17.664 46.336-17.664 64 0v0c17.664 17.664 17.664 46.336 0 64l-143.296 143.296c3.776 6.208 7.040 12.672 10.176 19.264l126.528-56.256 147.84 232.256v-479.808zM320 490.667c0 70.592 57.408 128 128 128 66.944 0 121.408-51.84 126.912-117.376l-128.384 57.088-13.952-7.68c-34.304-18.88-73.28-40.256-112.384-61.76 0 0.576-0.192 1.152-0.192 1.728zM449.472 486.955l113.92-50.624c-20.48-43.392-64.32-73.664-115.392-73.664-46.848 0-87.424 25.536-109.76 63.232 32.832 17.984 69.376 38.016 111.232 61.056zM896 705.707l-172.16-270.592-85.12 37.824c0.576 5.888 1.28 11.712 1.28 17.728 0 106.048-85.952 192-192 192s-192-85.952-192-192c0-11.968 1.408-23.616 3.52-34.944-51.136-28.032-98.688-54.016-131.52-71.808v362.752c0 35.264 28.736 64 64 64h640c35.264 0 64-28.736 64-64v-40.96z" />
<glyph unicode="&#xe608;" glyph-name="chart-line" data-tags="ico-chart-line" d="M832 938.667h-640c-106.048 0-192-85.952-192-192v-640c0-106.048 85.952-192 192-192h640c106.048 0 192 85.952 192 192v640c0 106.048-85.952 192-192 192zM192 810.667h640c35.264 0 64-28.736 64-64v-72l-188.992-141.76-128 128-236.928-177.664-68.928 103.424h-145.152v160c0 35.264 28.736 64 64 64zM896 594.667v-363.968l-263.68 105.536-115.328-115.328-139.328 209.024 195.328 146.496 128-128 195.008 146.24zM290.816 444.779l-162.816-122.112v200h110.848l51.968-77.888zM832 42.667h-640c-35.264 0-64 28.736-64 64v136l198.336 148.8 180.672-270.976 140.672 140.672 248.32-99.328v-55.168c0-35.264-28.736-64-64-64z" />
<glyph unicode="&#xe609;" glyph-name="chart-pie" data-tags="icon-chart-pie" d="M380.456 856.304c9.425-21.597-0.443-46.746-22.041-56.17-57.489-25.088-107.958-63.876-146.993-112.974s-65.449-107.011-76.932-168.675c-11.483-61.666-7.686-125.205 11.060-185.062s51.87-114.214 96.476-158.315c44.606-44.096 99.335-76.599 159.403-94.66s123.648-21.133 185.178-8.947c61.53 12.19 119.134 39.262 167.787 78.857 48.649 39.59 86.857 90.5 111.287 148.271 9.178 21.705 34.21 31.859 55.915 22.682 21.7-9.178 31.855-34.21 22.677-55.915-29.858-70.609-76.557-132.83-136.017-181.222s-129.869-81.485-205.073-96.38c-75.2-14.891-152.909-11.14-226.325 10.935s-140.308 61.798-194.826 115.699c-54.518 53.897-95.003 120.333-117.915 193.493-22.912 73.156-27.553 150.818-13.519 226.185 14.035 75.368 46.319 146.151 94.028 206.16s109.394 107.417 179.659 138.079c21.597 9.425 46.746-0.443 56.171-22.040zM481.83 904.837c8 8.001 18.854 12.497 30.17 12.497 61.632 0 122.662-12.14 179.605-35.726s108.681-58.157 152.265-101.739c43.58-43.581 78.153-95.32 101.739-152.262s35.725-117.974 35.725-179.606c0-23.565-19.102-42.667-42.667-42.667h-426.667c-23.565 0-42.667 19.102-42.667 42.667v426.667c0 11.316 4.497 22.168 12.497 30.17zM554.667 829.622v-338.956h338.957c-4.002 35.78-13.022 70.891-26.854 104.284-19.298 46.589-47.582 88.921-83.238 124.579-35.661 35.658-77.99 63.943-124.578 83.241-33.395 13.832-68.506 22.852-104.286 26.852z" />
<glyph unicode="&#xe60a;" glyph-name="close" data-tags="icon-close" d="M1002.551 938.551c28.56-28.564 28.56-74.871 0-103.434l-877.667-877.667c-28.564-28.56-74.871-28.56-103.434 0s-28.562 74.873 0 103.433l877.667 877.667c28.56 28.562 74.873 28.562 103.433 0zM21.449 938.551c28.564 28.562 74.871 28.562 103.434 0l877.667-877.667c28.56-28.56 28.56-74.873 0-103.433s-74.873-28.56-103.433 0l-877.667 877.667c-28.562 28.564-28.562 74.871 0 103.434z" />
<glyph unicode="&#xe60b;" glyph-name="arrow-collapsed" data-tags="ico-collapsed-arrows" d="M734.656 362.667h-446.656l224-320zM288 490.667h446.656l-224 320z" />
<glyph unicode="&#xe60c;" glyph-name="configure" data-tags="icon-configure" d="M512 618.667c-93.752 0-170.667-76.915-170.667-170.667s76.915-170.667 170.667-170.667c93.752 0 170.667 76.915 170.667 170.667s-76.915 170.667-170.667 170.667zM512 533.333c47.637 0 85.333-37.696 85.333-85.333s-37.696-85.333-85.333-85.333c-47.637 0-85.333 37.696-85.333 85.333s37.696 85.333 85.333 85.333zM512 960c-33.93 0-66.507-13.508-90.5-37.5-23.995-23.994-37.5-56.569-37.5-90.5v-7.25c-0.053-5.355-1.625-10.533-4.583-15-2.379-3.593-6.046-6.028-9.75-8.167-2.474-0.67-4.58-1.438-6.6-2.359l0.267 0.109c-5.073-2.239-10.626-2.906-16.083-1.917-5.455 0.989-10.536 3.622-14.5 7.5l-2.167 2.167c-11.887 11.9-26.044 21.392-41.583 27.833s-32.18 9.75-49 9.75c-16.82 0-33.461-3.309-49-9.75-15.503-6.427-29.63-15.889-41.5-27.75-11.9-11.887-21.392-26.044-27.833-41.583s-9.75-32.18-9.75-49c0-16.82 3.309-33.461 9.75-49s15.934-29.697 27.833-41.583l2.167-2.167c3.878-3.964 6.511-9.045 7.5-14.5 0.99-5.458 0.322-11.010-1.917-16.083-0.254-0.541-0.592-1.367-0.904-2.205l-0.096-0.295c-1.922-5.226-5.386-9.759-9.917-13-4.533-3.242-9.94-5.037-15.5-5.167h-2.833c-33.931 0-66.506-13.505-90.5-37.5-23.992-23.993-37.5-56.57-37.5-90.5s13.508-66.507 37.5-90.5c23.994-23.995 56.569-37.5 90.5-37.5h7.25c5.361-0.053 10.537-1.627 15-4.583 4.517-2.992 8.119-7.276 10.25-12.25 0.157-0.425 0.214-0.562 0.271-0.7l-0.104 0.283c2.238-5.070 2.906-10.626 1.917-16.083-0.989-5.455-3.619-10.532-7.5-14.5l-2.167-2.167c-11.905-11.889-21.392-26.045-27.833-41.583-6.442-15.541-9.75-32.181-9.75-49s3.308-33.459 9.75-49c6.426-15.502 15.884-29.628 27.75-41.5 0.016-0.016 0.067 0.016 0.083 0s-0.016-0.067 0-0.083c11.872-11.867 25.993-21.325 41.5-27.75 15.543-6.446 32.18-9.75 49-9.75s33.457 3.304 49 9.75c15.543 6.44 29.694 15.928 41.583 27.833l2.167 2.167c3.967 3.88 8.966 6.512 14.417 7.5 5.459 0.989 11.093 0.322 16.167-1.917 0.541-0.254 1.367-0.592 2.205-0.904l0.295-0.096c5.23-1.924 9.76-5.387 13-9.917 3.242-4.533 5.037-9.939 5.167-15.5v-2.833c0-33.93 13.506-66.506 37.5-90.5s56.57-37.5 90.5-37.5c33.93 0 66.506 13.506 90.5 37.5s37.5 56.57 37.5 90.5v7.25c0.053 5.361 1.627 10.536 4.583 15 2.99 4.514 7.266 8.114 12.25 10.25 0.425 0.157 0.562 0.214 0.7 0.271l-0.283-0.104c5.071 2.238 10.625 2.906 16.083 1.917 5.45-0.988 10.529-3.617 14.5-7.5l2.167-2.167c11.892-11.911 26.042-21.394 41.583-27.833 15.545-6.447 32.181-9.75 49-9.75s33.455 3.303 49 9.75c15.505 6.424 29.626 15.878 41.5 27.75v0.083c11.888 11.881 21.403 25.98 27.833 41.5 6.447 15.545 9.75 32.181 9.75 49s-3.303 33.455-9.75 49c-6.424 15.505-15.878 29.626-27.75 41.5l-2.25 2.25c-3.883 3.971-6.512 8.966-7.5 14.417-0.989 5.459-0.321 11.095 1.917 16.167-0.047-0.146 0.009-0.008 0.065 0.13l0.102 0.287c2.136 4.984 5.736 9.26 10.25 12.25 4.464 2.956 9.639 4.53 15 4.583h3.833c33.93 0 66.506 13.506 90.5 37.5s37.5 56.57 37.5 90.5c0 33.93-13.506 66.506-37.5 90.5s-56.57 37.5-90.5 37.5h-7.083c-5.413 0.022-10.654 1.595-15.167 4.583-3.59 2.377-6.026 6.042-8.167 9.75-0.67 2.475-1.438 4.58-2.359 6.601l0.109-0.267c-2.239 5.074-2.906 10.624-1.917 16.083 0.988 5.45 3.62 10.533 7.5 14.5l2.167 2.167c11.905 11.889 21.394 26.041 27.833 41.583 6.446 15.543 9.75 32.18 9.75 49s-3.304 33.457-9.75 49c-6.425 15.507-15.883 29.628-27.75 41.5-11.889 11.905-26.045 21.392-41.583 27.833-15.541 6.442-32.181 9.75-49 9.75s-33.459-3.308-49-9.75c-15.538-6.441-29.694-15.928-41.583-27.833l-2.167-2.167c-3.968-3.881-9.045-6.511-14.5-7.5-5.457-0.989-11.013-0.321-16.083 1.917 0.146-0.047 0.008 0.009-0.13 0.065l-0.287 0.102c-4.974 2.131-9.258 5.733-12.25 10.25-2.956 4.463-4.53 9.639-4.583 15v3.833c0 33.931-13.505 66.506-37.5 90.5-23.993 23.992-56.57 37.5-90.5 37.5zM512 874.667c11.33 0 22.152-4.485 30.167-12.5 8.013-8.012 12.5-18.834 12.5-30.167v-3.833c0-0.025 0-0.054 0-0.083s0-0.059 0-0.088v0.005c0.089-22.041 6.656-43.614 18.833-62 12.128-18.31 29.327-32.638 49.5-41.333 20.606-9.040 43.442-11.765 65.583-7.75 22.227 4.029 42.771 14.625 58.917 30.417 0.113 0.112 0.222 0.22 0.33 0.33l0.004 0.004 2.583 2.5c0 0.012 0 0.027 0 0.042s0 0.029 0 0.044v-0.002c3.957 3.963 8.652 7.102 13.833 9.25 5.178 2.147 10.727 3.25 16.333 3.25s11.155-1.103 16.333-3.25c5.181-2.148 9.876-5.287 13.833-9.25 0.028-0.028 0.055-0.055 0.082-0.082l0.001-0.001c3.967-3.961 7.105-8.657 9.25-13.833 2.147-5.176 3.25-10.725 3.25-16.333s-1.103-11.157-3.25-16.333c-2.145-5.176-5.283-9.872-9.25-13.833-0.012 0-0.027 0-0.042 0s-0.029 0-0.044 0h0.002l-2.5-2.583c-0.113-0.112-0.222-0.22-0.33-0.33l-0.004-0.004c-15.789-16.144-26.387-36.686-30.417-58.917-4.028-22.223-1.369-45.169 7.75-65.833l-3.583 17.25v-3.417c0-0.030 0-0.066 0-0.102 0-6.045 1.257-11.796 3.524-17.006l-0.107 0.275c8.683-20.255 23.114-37.491 41.5-49.667 18.382-12.173 39.952-18.746 62-18.833 0.025 0 0.054 0 0.083 0s0.059 0 0.088 0h7.245c11.331 0 22.152-4.485 30.167-12.5s12.5-18.836 12.5-30.167c0-11.331-4.485-22.152-12.5-30.167s-18.836-12.5-30.167-12.5h-3.833c-0.025 0-0.054 0-0.083 0s-0.059 0-0.088 0h0.005c-22.041-0.089-43.614-6.656-62-18.833-18.314-12.13-32.639-29.337-41.333-49.5-9.038-20.605-11.763-43.443-7.75-65.583 4.030-22.232 14.63-42.774 30.417-58.917 0.112-0.113 0.22-0.222 0.33-0.33l0.004-0.004 2.5-2.583c0.012 0 0.027 0 0.042 0s0.029 0 0.044 0h-0.002c3.961-3.955 7.105-8.656 9.25-13.833 2.146-5.174 3.25-10.727 3.25-16.333s-1.104-11.159-3.25-16.333c-2.145-5.178-5.289-9.879-9.25-13.833-0.028-0.028-0.055-0.055-0.082-0.082l-0.001-0.001c-3.955-3.961-8.656-7.105-13.833-9.25-5.174-2.146-10.727-3.25-16.333-3.25s-11.159 1.104-16.333 3.25c-5.178 2.145-9.879 5.289-13.833 9.25 0 0.012 0 0.027 0 0.042s0 0.029 0 0.044v-0.002l-2.583 2.5c-0.112 0.113-0.22 0.222-0.33 0.33l-0.004 0.004c-16.143 15.786-36.685 26.387-58.917 30.417-22.14 4.013-44.979 1.288-65.583-7.75-20.163-8.694-37.37-23.019-49.5-41.333-12.177-18.386-18.744-39.959-18.833-62 0-0.025 0-0.054 0-0.083s0-0.059 0-0.088v0.005-7.25c0-11.331-4.485-22.152-12.5-30.167s-18.836-12.5-30.167-12.5c-11.331 0-22.152 4.485-30.167 12.5s-12.5 18.836-12.5 30.167v3.833c0.002 0.149 0.003 0.324 0.003 0.5s-0.001 0.351-0.003 0.527v-0.027c-0.528 22.685-7.889 44.719-21.083 63.167-12.925 18.072-31.099 31.581-51.833 39.5-20.314 8.653-42.672 11.525-64.417 7.583-22.231-4.030-42.772-14.627-58.917-30.417-0.113-0.112-0.222-0.22-0.33-0.33l-0.004-0.004-2.583-2.5c0-0.012 0-0.027 0-0.042s0-0.029 0-0.044v0.002c-3.961-3.967-8.657-7.105-13.833-9.25-5.176-2.147-10.725-3.25-16.333-3.25s-11.157 1.103-16.333 3.25c-5.176 2.145-9.872 5.283-13.833 9.25-0.028 0.028-0.055 0.055-0.082 0.082l-0.001 0.001c-3.963 3.957-7.102 8.652-9.25 13.833-2.147 5.178-3.25 10.727-3.25 16.333s1.103 11.155 3.25 16.333c2.148 5.181 5.287 9.876 9.25 13.833 0.012 0 0.027 0 0.042 0s0.029 0 0.044 0h-0.002l2.5 2.583c0.113 0.112 0.222 0.22 0.33 0.33l0.004 0.004c15.792 16.145 26.387 36.69 30.417 58.917 4.015 22.142 1.29 44.978-7.75 65.583-8.695 20.173-23.023 37.373-41.333 49.5-18.386 12.177-39.959 18.744-62 18.833-0.025 0-0.054 0-0.083 0s-0.059 0-0.088 0h-7.245c-11.333 0-22.154 4.487-30.167 12.5-8.015 8.015-12.5 18.836-12.5 30.167s4.485 22.152 12.5 30.167c8.012 8.013 18.834 12.5 30.167 12.5h3.833c0.149-0.002 0.324-0.003 0.5-0.003s0.351 0.001 0.527 0.003h-0.027c22.684 0.528 44.719 7.889 63.167 21.083 18.070 12.925 31.581 31.095 39.5 51.833 8.655 20.315 11.526 42.67 7.583 64.417-4.029 22.226-14.622 42.769-30.417 58.917-0.112 0.113-0.22 0.222-0.33 0.33l-0.004 0.004-2.5 2.583c-0.012 0-0.027 0-0.042 0s-0.029 0-0.044 0h0.002c-3.968 3.964-7.103 8.653-9.25 13.833s-3.25 10.725-3.25 16.333c0 5.608 1.103 11.153 3.25 16.333s5.282 9.869 9.25 13.833c0.028 0.028 0.055 0.055 0.082 0.082l0.001 0.001c3.964 3.968 8.653 7.103 13.833 9.25s10.725 3.25 16.333 3.25c5.608 0 11.153-1.103 16.333-3.25s9.869-5.282 13.833-9.25c0-0.012 0-0.027 0-0.042s0-0.029 0-0.044v0.002l2.583-2.5c0.112-0.113 0.22-0.222 0.33-0.33l0.004-0.004c16.147-15.795 36.691-26.387 58.917-30.417 22.224-4.030 45.168-1.371 65.833 7.75l-17.25-3.583h3.417c0.030 0 0.066 0 0.103 0 6.045 0 11.796 1.257 17.006 3.524l-0.276-0.107c20.264 8.685 37.493 23.118 49.667 41.5s18.746 39.953 18.833 62c0 0.025 0 0.054 0 0.083s0 0.059 0 0.088v-0.005 7.25c0 11.333 4.487 22.154 12.5 30.167 8.015 8.015 18.836 12.5 30.167 12.5z" />
<glyph unicode="&#xe60d;" glyph-name="datepicker-arr-l" data-tags="icon-datepicker-arr-l" d="M470.583 704c-0.365 0.011-0.795 0.018-1.226 0.018-11.792 0-22.468-4.784-30.19-12.517v0l-213.333-213.333c-7.718-7.721-12.492-18.387-12.492-30.167s4.774-22.445 12.492-30.167l213.333-213.333c7.721-7.719 18.386-12.494 30.167-12.494s22.446 4.774 30.167 12.494v0c7.719 7.721 12.494 18.386 12.494 30.167s-4.774 22.446-12.494 30.167l-183.167 183.167 183.167 183.167c7.719 7.721 12.494 18.386 12.494 30.167s-4.774 22.446-12.494 30.167v0c-7.43 7.44-17.591 12.151-28.852 12.498l-0.065 0.002zM769.25 704c-0.365 0.011-0.795 0.018-1.226 0.018-11.792 0-22.468-4.784-30.19-12.517v0l-213.333-213.333c-7.718-7.721-12.492-18.387-12.492-30.167s4.774-22.445 12.492-30.167l213.333-213.333c7.721-7.719 18.386-12.494 30.167-12.494s22.446 4.774 30.167 12.494v0c7.719 7.721 12.494 18.386 12.494 30.167s-4.774 22.446-12.494 30.167l-183.167 183.167 183.167 183.167c7.719 7.721 12.494 18.386 12.494 30.167s-4.774 22.446-12.494 30.167v0c-7.43 7.44-17.591 12.151-28.852 12.498l-0.065 0.002z" />
<glyph unicode="&#xe60e;" glyph-name="datepicker-arr-r" data-tags="ico-datepicker-arr-r" d="M555.917 704c-0.365 0.011-0.795 0.018-1.226 0.018-11.792 0-22.468-4.784-30.19-12.517v0c-7.719-7.721-12.494-18.386-12.494-30.167s4.774-22.446 12.494-30.167l183.167-183.167-183.167-183.167c-7.719-7.721-12.494-18.386-12.494-30.167s4.774-22.446 12.494-30.167v0c7.721-7.719 18.386-12.494 30.167-12.494s22.446 4.774 30.167 12.494l213.333 213.333c7.718 7.721 12.492 18.387 12.492 30.167s-4.774 22.445-12.492 30.167l-213.333 213.333c-7.43 7.44-17.591 12.151-28.852 12.498l-0.065 0.002zM257.25 704c-0.365 0.011-0.795 0.018-1.226 0.018-11.792 0-22.468-4.784-30.19-12.517v0c-7.719-7.721-12.494-18.386-12.494-30.167s4.774-22.446 12.494-30.167l183.167-183.167-183.167-183.167c-7.719-7.721-12.494-18.386-12.494-30.167s4.774-22.446 12.494-30.167v0c7.721-7.719 18.386-12.494 30.167-12.494s22.446 4.774 30.167 12.494l213.333 213.333c7.718 7.721 12.492 18.387 12.492 30.167s-4.774 22.445-12.492 30.167l-213.333 213.333c-7.43 7.44-17.591 12.151-28.852 12.498l-0.065 0.002z" />
<glyph unicode="&#xe60f;" glyph-name="delete" data-tags="icon-delete" d="M46.553 727.268c0 25.706 20.839 46.545 46.545 46.545h837.804c25.707 0 46.545-20.839 46.545-46.545s-20.838-46.545-46.545-46.545h-837.804c-25.706 0-46.545 20.839-46.545 46.545zM418.911 866.902c-12.345 0-24.183-4.904-32.912-13.633s-13.633-20.568-13.633-32.912v-93.089c0-25.706-20.839-46.545-46.545-46.545s-46.545 20.839-46.545 46.545v93.089c0 37.034 14.712 72.55 40.897 98.737s61.703 40.897 98.737 40.897h186.179c37.031 0 72.55-14.712 98.735-40.897s40.899-61.703 40.899-98.737v-93.089c0-25.706-20.838-46.545-46.545-46.545s-46.545 20.839-46.545 46.545v93.089c0 12.345-4.906 24.183-13.633 32.912s-20.568 13.633-32.912 13.633h-186.179zM186.187 773.813c25.706 0 46.545-20.839 46.545-46.545v-651.625c0-12.343 4.904-24.185 13.633-32.912s20.568-13.633 32.912-13.633h465.447c12.343 0 24.185 4.906 32.912 13.633s13.633 20.568 13.633 32.912v651.625c0 25.706 20.838 46.545 46.545 46.545s46.545-20.839 46.545-46.545v-651.625c0-37.036-14.713-72.55-40.899-98.735s-61.7-40.899-98.735-40.899h-465.447c-37.034 0-72.55 14.713-98.737 40.899s-40.897 61.7-40.897 98.735v651.625c0 25.706 20.839 46.545 46.545 46.545z" />
<glyph unicode="&#xe610;" glyph-name="document" data-tags="icon-document" d="M134.002 919.085c26.186 26.186 61.702 40.897 98.735 40.897h372.351c12.343 0 24.185-4.903 32.912-13.633l279.263-279.263c8.727-8.729 13.633-20.567 13.633-32.912v-558.526c0-37.035-14.713-72.548-40.898-98.734s-61.699-40.898-98.734-40.898h-558.526c-37.033 0-72.548 14.713-98.735 40.898s-40.897 61.699-40.897 98.734v744.702c0 37.033 14.711 72.548 40.897 98.735zM232.737 866.895c-12.344 0-24.182-4.903-32.912-13.633s-13.633-20.567-13.633-32.912v-744.702c0-12.343 4.903-24.185 13.633-32.912s20.567-13.633 32.912-13.633h558.526c12.343 0 24.185 4.906 32.912 13.633s13.633 20.567 13.633 32.912v539.247l-251.998 251.998h-353.073zM605.087 959.982c25.706 0 46.544-20.839 46.544-46.544v-232.719h232.719c25.706 0 46.544-20.839 46.544-46.544s-20.838-46.544-46.544-46.544h-279.263c-25.706 0-46.544 20.839-46.544 46.544v279.263c0 25.705 20.838 46.544 46.544 46.544zM279.281 401.456c0 25.706 20.839 46.544 46.544 46.544h372.351c25.706 0 46.544-20.838 46.544-46.544s-20.838-46.544-46.544-46.544h-372.351c-25.705 0-46.544 20.838-46.544 46.544zM279.281 215.281c0 25.706 20.839 46.544 46.544 46.544h372.351c25.706 0 46.544-20.838 46.544-46.544s-20.838-46.544-46.544-46.544h-372.351c-25.705 0-46.544 20.838-46.544 46.544zM279.281 587.632c0 25.705 20.839 46.544 46.544 46.544h93.087c25.706 0 46.544-20.839 46.544-46.544s-20.838-46.544-46.544-46.544h-93.087c-25.705 0-46.544 20.839-46.544 46.544z" />
<glyph unicode="&#xe611;" glyph-name="download" data-tags="icon-download" d="M51.235 345.608c28.275 0 51.197-22.921 51.197-51.197v-204.785c0-13.577 5.394-26.602 14.995-36.201s22.623-14.995 36.201-14.995h716.746c13.577 0 26.602 5.396 36.201 14.995s14.995 22.623 14.995 36.201v204.785c0 28.276 22.921 51.197 51.197 51.197s51.197-22.921 51.197-51.197v-204.785c0-40.737-16.183-79.8-44.986-108.603s-67.866-44.986-108.603-44.986h-716.746c-40.735 0-79.8 16.183-108.604 44.986s-44.985 67.871-44.985 108.603v204.785c0 28.276 22.922 51.197 51.197 51.197zM219.818 586.593c19.994 19.993 52.408 19.993 72.403 0l219.779-219.78 219.78 219.78c19.992 19.993 52.41 19.993 72.401 0s19.992-52.41 0-72.403l-255.98-255.98c-19.992-19.992-52.41-19.992-72.401 0l-255.982 255.98c-19.993 19.992-19.993 52.408 0 72.403zM512 959.962c28.276 0 51.197-22.922 51.197-51.197v-614.354c0-28.276-22.921-51.197-51.197-51.197s-51.197 22.921-51.197 51.197v614.354c0 28.275 22.921 51.197 51.197 51.197z" />
<glyph unicode="&#xe612;" glyph-name="drop" data-tags="icon-drop" d="M511.731 959.975c12.748 0.006 24.971-5.056 33.986-14.068l271.842-271.841c0-0.003-0.005 0.003 0 0 60.475-60.442 101.68-137.473 118.381-221.33 16.704-83.856 8.16-170.786-24.548-249.792s-88.116-146.536-159.21-194.048c-71.090-47.507-154.677-72.867-240.185-72.867s-169.095 25.36-240.189 72.867c-71.093 47.512-126.498 115.042-159.207 194.048s-41.253 165.935-24.551 249.792c16.7 83.851 57.887 160.861 118.354 221.3 0.010 0.010-0.010-0.010 0 0l271.362 271.839c9.001 9.020 21.224 14.092 33.967 14.098zM511.784 843.99l-237.45-237.871c-47.042-47.013-79.086-106.917-92.075-172.143s-6.346-132.837 19.095-194.288c25.441-61.445 68.533-113.966 123.828-150.921s120.306-56.676 186.813-56.676c66.508 0 131.517 19.721 186.814 56.676 55.293 36.955 98.385 89.476 123.827 150.921 25.442 61.45 32.084 129.063 19.092 194.288-12.987 65.225-45.033 125.128-92.074 172.143l-237.871 237.871z" />
<glyph unicode="&#xe613;" glyph-name="ecommerce-abandoned-cart" data-tags="icon-ecommerce-abandoned" d="M384 149.333c-46.622 0-85.333-38.71-85.333-85.333s38.711-85.333 85.333-85.333c46.622 0 85.333 38.71 85.333 85.333s-38.711 85.333-85.333 85.333zM853.333 149.333c-46.622 0-85.333-38.711-85.333-85.333s38.711-85.333 85.333-85.333c46.622 0 85.333 38.711 85.333 85.333s-38.711 85.333-85.333 85.333zM42.667 960c-23.564 0-42.667-19.103-42.667-42.667v0c0-23.564 19.103-42.667 42.667-42.667v0h135.667l35.583-177.667c0.24-1.505 0.501-2.744 0.815-3.963l-0.065 0.296 71.167-355.667c5.862-29.428 21.872-55.933 45.25-74.75 23.392-18.828 52.721-28.826 82.75-28.25h413.083c30.029-0.576 59.358 9.425 82.75 28.25 23.394 18.831 39.401 45.372 45.25 74.833-0.061-0.217-0.033-0.134-0.005-0.051l0.088 0.301 68.25 358c0.481 2.404 0.756 5.168 0.756 7.996 0 23.567-19.104 42.671-42.671 42.671-0.001 0-0.001 0-0.002 0h-690.333l-35.833 179c-4.030 19.708-21.224 34.326-41.833 34.333h-170.667zM308.083 661.333h621.667l-58.5-307.083c-1.962-9.797-7.298-18.566-15.083-24.833-7.815-6.289-17.566-9.609-27.583-9.417-0.124 0.001-0.27 0.002-0.417 0.002s-0.293-0.001-0.439-0.002h-414.728c-0.124 0.001-0.27 0.002-0.417 0.002s-0.293-0.001-0.439-0.002h0.022c-10.018-0.192-19.775 3.131-27.583 9.417-7.804 6.281-13.131 15.086-15.083 24.917 0 0.012 0 0.027 0 0.042s0 0.029 0 0.044v-0.002l-61.417 306.917zM512 533.333c-23.564 0-42.667-19.103-42.667-42.667v0c0-23.564 19.103-42.667 42.667-42.667v0h213.333c23.564 0 42.667 19.103 42.667 42.667v0c0 23.564-19.103 42.667-42.667 42.667v0h-213.333z" />
<glyph unicode="&#xe614;" glyph-name="ecommerce-order" data-tags="icon-ecommerce-order" d="M384 149.333c-46.622 0-85.333-38.71-85.333-85.333s38.711-85.333 85.333-85.333c46.622 0 85.333 38.71 85.333 85.333s-38.711 85.333-85.333 85.333zM853.333 149.333c-46.622 0-85.333-38.711-85.333-85.333s38.711-85.333 85.333-85.333c46.622 0 85.333 38.711 85.333 85.333s-38.711 85.333-85.333 85.333zM42.667 960c-23.564 0-42.667-19.103-42.667-42.667v0c0-23.564 19.103-42.667 42.667-42.667v0h135.667l35.583-177.667c0.24-1.505 0.501-2.744 0.815-3.963l-0.065 0.296 71.167-355.667c5.862-29.428 21.872-55.933 45.25-74.75 23.392-18.828 52.721-28.826 82.75-28.25h413.083c30.029-0.576 59.358 9.425 82.75 28.25 23.394 18.831 39.401 45.372 45.25 74.833-0.061-0.217-0.033-0.134-0.005-0.051l0.088 0.301 68.25 358c0.481 2.404 0.756 5.168 0.756 7.996 0 23.567-19.104 42.671-42.671 42.671-0.001 0-0.001 0-0.002 0h-690.333l-35.833 179c-4.030 19.708-21.224 34.326-41.833 34.333h-170.667zM308.083 661.333h621.667l-58.5-307.083c-1.962-9.797-7.298-18.566-15.083-24.833-7.815-6.289-17.566-9.609-27.583-9.417-0.124 0.001-0.27 0.002-0.417 0.002s-0.293-0.001-0.439-0.002h-414.728c-0.124 0.001-0.27 0.002-0.417 0.002s-0.293-0.001-0.439-0.002h0.022c-10.018-0.192-19.775 3.131-27.583 9.417-7.804 6.281-13.131 15.086-15.083 24.917 0 0.012 0 0.027 0 0.042s0 0.029 0 0.044v-0.002l-61.417 306.917zM512 533.333c-23.564 0-42.667-19.103-42.667-42.667v0c0-23.564 19.103-42.667 42.667-42.667v0h213.333c23.564 0 42.667 19.103 42.667 42.667v0c0 23.564-19.103 42.667-42.667 42.667v0h-213.333zM618.667 640c-23.564 0-42.667-19.103-42.667-42.667v0-213.333c0-23.564 19.103-42.667 42.667-42.667v0c23.564 0 42.667 19.103 42.667 42.667v0 213.333c0 23.564-19.103 42.667-42.667 42.667v0z" />
<glyph unicode="&#xe615;" glyph-name="email" data-tags="icon-email" d="M139.649 773.807c-25.493 0-46.544-21.051-46.544-46.544v-558.526c0-25.493 21.051-46.544 46.544-46.544h744.702c25.493 0 46.544 21.052 46.544 46.544v558.526c0 25.493-21.052 46.544-46.544 46.544h-744.702zM0.018 727.263c0 76.903 62.728 139.632 139.632 139.632h744.702c76.904 0 139.632-62.728 139.632-139.632v-558.526c0-76.904-62.727-139.632-139.632-139.632h-744.702c-76.903 0-139.632 62.727-139.632 139.632v558.526zM8.435 753.95c14.741 21.059 43.763 26.18 64.822 11.439l438.748-307.122 438.745 307.122c21.061 14.741 50.081 9.619 64.822-11.439s9.62-50.080-11.44-64.822l-465.439-325.806c-16.025-11.217-37.356-11.217-53.381 0l-465.438 325.806c-21.058 14.741-26.18 43.763-11.439 64.822z" />
<glyph unicode="&#xe616;" glyph-name="error" data-tags="icon-error" d="M446.17 882.55c20.093 11.313 42.763 17.256 65.822 17.256s45.729-5.943 65.822-17.256c20.093-11.313 36.931-27.613 48.89-47.328l0.13-0.213 379.157-632.985c11.712-20.291 17.911-43.291 17.978-66.716 0.067-23.43-6.006-46.461-17.607-66.815s-28.327-37.316-48.519-49.194c-20.192-11.883-43.139-18.269-66.564-18.524l-0.492-0.009-758.083 0.004c-23.426 0.259-46.375 6.645-66.566 18.529-20.191 11.878-36.919 28.842-48.52 49.194s-17.671 43.385-17.605 66.815c0.066 23.426 6.264 46.426 17.979 66.716l0.364 0.617 378.923 632.58c11.959 19.715 28.799 36.015 48.892 47.328zM511.991 810.361c-7.687 0-15.246-1.981-21.94-5.751-6.668-3.754-12.263-9.156-16.244-15.687l-378.506-631.884c-3.809-6.699-5.824-14.271-5.846-21.981-0.022-7.809 2.001-15.487 5.869-22.272s9.443-12.438 16.173-16.4c6.672-3.926 14.246-6.051 21.983-6.172h757.019c7.737 0.121 15.313 2.245 21.981 6.172 6.73 3.962 12.308 9.615 16.176 16.4 3.864 6.785 5.89 14.463 5.868 22.272-0.022 7.705-2.035 15.277-5.846 21.976l-378.451 631.8c-0.018 0.029-0.036 0.059-0.053 0.089-3.985 6.531-9.575 11.933-16.244 15.687-6.699 3.77-14.257 5.751-21.94 5.751zM512 626.888c24.7 0 44.722-20.023 44.722-44.722v-178.888c0-24.7-20.022-44.722-44.722-44.722s-44.722 20.022-44.722 44.722v178.888c0 24.699 20.022 44.722 44.722 44.722zM467.278 224.39c0 24.7 20.022 44.722 44.722 44.722h0.448c24.7 0 44.722-20.022 44.722-44.722s-20.022-44.722-44.722-44.722h-0.448c-24.7 0-44.722 20.022-44.722 44.722z" />
<glyph unicode="&#xe617;" glyph-name="export" data-tags="icon-export" d="M219.444 838.074c-9.219 0-20.215-3.46-31.457-16.811-11.606-13.783-17.302-31.154-17.302-50.234v-694.81c0-0.010 0-0.010-48.76-0.010s-48.76 0-48.76 0.010v694.81c0 38.822 11.852 79.352 40.228 113.049 28.74 34.13 66.503 51.514 106.050 51.514h97.504l0.014-48.76v-48.76h-97.517zM121.926 76.211l-48.76 0.010c0-41.197 13.708-82.052 40.025-113.303 26.529-31.503 64.488-51.27 106.253-51.27h585.107c41.767 0 79.726 19.767 106.256 51.27 26.315 31.25 40.022 72.096 40.022 113.292v347.41c0 26.93-21.83 48.76-48.76 48.76s-48.76-21.83-48.76-48.76v-347.41c0-20.23-6.841-38.295-17.1-50.476-10.044-11.937-21.693-16.568-31.659-16.568h-585.107c-9.963 0-21.611 4.632-31.659 16.568-10.259 12.18-17.1 30.25-17.1 50.485l-48.76-0.010zM365.721 886.834c0-26.929-21.831-48.76-48.76-48.76v48.76l-0.014 48.76c26.929 0 48.772-21.831 48.772-48.76zM512 643.038c-8.616 0-20.059-4.283-30.616-17.718-10.781-13.719-18.143-34.35-18.143-57.637v-217.201c0-26.93-21.83-48.76-48.76-48.76s-48.76 21.83-48.76 48.76v217.201c0 42.547 13.184 85.054 38.982 117.886 26.019 33.118 64.183 54.987 107.296 54.987h292.556c26.93 0 48.76-21.831 48.76-48.76s-21.83-48.76-48.76-48.76h-292.556zM887.792 726.274c19.040-19.042 19.040-49.914 0-68.956l-195.038-195.036c-19.040-19.040-49.915-19.040-68.955 0s-19.040 49.915 0 68.955l160.559 160.559-160.559 160.559c-19.040 19.042-19.040 49.914 0 68.956s49.915 19.041 68.955 0l195.038-195.038z" />
<glyph unicode="&#xe618;" glyph-name="feed" data-tags="icon-feed" d="M0.043 504.885c0 31.417 25.469 56.885 56.885 56.885 150.866 0 295.553-59.934 402.233-166.607 106.675-106.68 166.607-251.366 166.607-402.233 0-31.417-25.467-56.885-56.885-56.885s-56.885 25.467-56.885 56.885c0 120.691-47.948 236.444-133.288 321.788-85.342 85.338-201.093 133.285-321.785 133.285-31.416 0-56.885 25.467-56.885 56.885zM0.043 903.073c0 31.416 25.469 56.885 56.885 56.885 256.472 0 502.441-101.884 683.792-283.236s283.238-427.32 283.238-683.794c0-31.417-25.467-56.885-56.885-56.885s-56.885 25.467-56.885 56.885c0 226.297-89.899 443.332-249.915 603.347-160.015 160.017-377.049 249.915-603.347 249.915-31.416 0-56.885 25.469-56.885 56.885zM0.043 49.81c0 62.835 50.936 113.768 113.768 113.768s113.768-50.934 113.768-113.768c0-62.835-50.936-113.768-113.768-113.768s-113.768 50.934-113.768 113.768z" />
<glyph unicode="&#xe619;" glyph-name="finance" data-tags="icon-finance" d="M128.024 746.648c-23.563 0-42.664-19.102-42.664-42.664v-511.968c0-23.564 19.102-42.664 42.664-42.664h767.952c23.564 0 42.664 19.101 42.664 42.664v511.968c0 23.563-19.101 42.664-42.664 42.664h-767.952zM0.032 703.984c0 70.688 57.304 127.992 127.992 127.992h767.952c70.69 0 127.992-57.304 127.992-127.992v-511.968c0-70.69-57.302-127.992-127.992-127.992h-767.952c-70.688 0-127.992 57.302-127.992 127.992v511.968zM0.032 533.328c0 23.563 19.102 42.664 42.664 42.664h938.608c23.564 0 42.664-19.102 42.664-42.664s-19.101-42.664-42.664-42.664h-938.608c-23.563 0-42.664 19.101-42.664 42.664z" />
<glyph unicode="&#xe61a;" glyph-name="folder-charts" data-tags="ico-folder-charts" d="M744.384 778.667h-232.384l-69.632 129.28c-11.456 19.072-32.064 30.72-54.336 30.72h-121.344c-141.184 0-256.448-109.76-265.792-248.576-0.512-4.032-0.896-8.064-0.896-12.16v-483.584c0-154.496 125.184-279.68 279.616-279.68h464.768c154.432 0 279.616 125.184 279.616 279.616v294.144c0 154.432-125.184 290.24-279.616 290.24zM384 138.667c0-17.664-14.336-32-32-32h-64c-17.664 0-32 14.336-32 32v448c0 17.664 14.336 32 32 32h64c17.664 0 32-14.336 32-32v-448zM576 138.667c0-17.664-14.336-32-32-32h-64c-17.664 0-32 14.336-32 32v320c0 17.664 14.336 32 32 32h64c17.664 0 32-14.336 32-32v-320zM768 138.667c0-17.664-14.336-32-32-32h-64c-17.664 0-32 14.336-32 32v192c0 17.664 14.336 32 32 32h64c17.664 0 32-14.336 32-32v-192z" />
<glyph unicode="&#xe61b;" glyph-name="folder" data-tags="icon-folder" d="M139.649 820.351c-12.344 0-24.182-4.903-32.912-13.633s-13.633-20.567-13.633-32.912v-651.614c0-12.343 4.903-24.185 13.633-32.912s20.567-13.633 32.912-13.633h744.702c12.343 0 24.185 4.906 32.912 13.633s13.633 20.567 13.633 32.912v511.982c0 12.344-4.906 24.182-13.633 32.912s-20.567 13.633-32.912 13.633h-418.895c-15.565 0-30.095 7.778-38.729 20.725l-79.268 118.906h-207.81zM40.915 872.541c26.186 26.186 61.702 40.897 98.735 40.897h232.719c15.562 0 30.094-7.778 38.727-20.725l79.271-118.906h393.985c37.035 0 72.548-14.711 98.734-40.897s40.898-61.702 40.898-98.735v-511.982c0-37.035-14.713-72.548-40.898-98.734s-61.699-40.898-98.734-40.898h-744.702c-37.033 0-72.548 14.713-98.735 40.898s-40.897 61.699-40.897 98.734v651.614c0 37.033 14.711 72.548 40.897 98.735z" />
<glyph unicode="&#xe61c;" glyph-name="fullscreen" data-tags="icon-fullscreen" d="M45.024 914.976c28.804 28.804 67.869 44.985 108.604 44.985h153.588c28.275 0 51.197-22.922 51.197-51.197s-22.922-51.197-51.197-51.197h-153.588c-13.578 0-26.6-5.394-36.201-14.995s-14.995-22.623-14.995-36.201v-153.588c0-28.275-22.922-51.197-51.197-51.197s-51.197 22.922-51.197 51.197v153.588c0 40.735 16.182 79.8 44.985 108.604zM665.588 908.765c0 28.275 22.921 51.197 51.197 51.197h153.588c40.737 0 79.8-16.182 108.603-44.985s44.986-67.869 44.986-108.604v-153.588c0-28.275-22.921-51.197-51.197-51.197s-51.197 22.922-51.197 51.197v153.588c0 13.578-5.396 26.6-14.995 36.201s-22.623 14.995-36.201 14.995h-153.588c-28.276 0-51.197 22.922-51.197 51.197zM51.235 294.412c28.275 0 51.197-22.921 51.197-51.197v-153.588c0-13.577 5.394-26.602 14.995-36.201s22.623-14.995 36.201-14.995h153.588c28.275 0 51.197-22.921 51.197-51.197s-22.922-51.197-51.197-51.197h-153.588c-40.735 0-79.8 16.183-108.604 44.986s-44.985 67.866-44.985 108.603v153.588c0 28.276 22.922 51.197 51.197 51.197zM972.765 294.412c28.276 0 51.197-22.921 51.197-51.197v-153.588c0-40.737-16.183-79.8-44.986-108.603s-67.866-44.986-108.603-44.986h-153.588c-28.276 0-51.197 22.921-51.197 51.197s22.921 51.197 51.197 51.197h153.588c13.577 0 26.602 5.396 36.201 14.995s14.995 22.623 14.995 36.201v153.588c0 28.276 22.921 51.197 51.197 51.197z" />
<glyph unicode="&#xe61d;" glyph-name="goal" data-tags="icon-goal" d="M325.824 959.982c-74.988 0-127.671-12.615-162.722-26.636s-56.362-33.544-56.362-33.544c-8.423-8.422-13.634-20.056-13.636-32.907v-558.528c0.011-25.7 20.847-46.53 46.549-46.53 12.848 0 24.481 5.206 32.904 13.623v0c0 0 1.96 3.748 25.090 13s63.533 19.908 128.177 19.908c59.473 0 110.724-19.908 168.903-43.18s123.289-49.907 203.448-49.907c74.988 0 127.671 12.615 162.722 26.636s56.362 33.544 56.362 33.544c8.423 8.422 13.634 20.056 13.636 32.907v0 558.526c-0.011 25.7-20.847 46.53-46.549 46.53-12.848 0-24.481-5.206-32.904-13.623v0c0 0-1.961-3.748-25.090-13s-63.533-19.908-128.177-19.908c-59.473 0-110.724 19.908-168.903 43.18s-123.289 49.907-203.448 49.907zM325.824 866.895c59.473 0 110.724-19.908 168.903-43.18s123.289-49.907 203.448-49.907c64.344 0 105.178 11.331 139.632 22.818v-462.439c-3.567-2.089-0.904-1.689-11.454-5.909-23.13-9.252-63.533-19.908-128.177-19.908-59.473 0-110.724 19.908-168.903 43.18s-123.289 49.907-203.448 49.907c-64.344 0-105.178-11.331-139.632-22.818v462.439c3.567 2.089 0.904 1.689 11.454 5.909 23.13 9.252 63.533 19.908 128.177 19.908zM139.649 354.913c-25.705 0-46.544-20.839-46.544-46.544v0-325.807c0-25.705 20.839-46.544 46.544-46.544v0c25.705 0 46.544 20.839 46.544 46.544v0 325.807c0 25.705-20.839 46.544-46.544 46.544v0z" />
<glyph unicode="&#xe61e;" glyph-name="help-alt" data-tags="ico-help-alt" d="M512 938.667c-282.752 0-512-229.248-512-512s229.248-512 512-512 512 229.248 512 512-229.248 512-512 512zM896 426.667c0-82.816-26.624-159.36-71.36-222.144l-69.376 69.376c27.968 44.352 44.736 96.448 44.736 152.768s-16.768 108.416-44.736 152.768l69.376 69.376c44.736-62.784 71.36-139.328 71.36-222.144zM199.36 204.523c-44.736 62.784-71.36 139.328-71.36 222.144s26.624 159.36 71.36 222.144l69.376-69.376c-27.968-44.352-44.736-96.448-44.736-152.768s16.768-108.416 44.736-152.768l-69.376-69.376zM310.4 426.667c0 111.168 90.432 201.6 201.6 201.6s201.6-90.432 201.6-201.6c0-111.168-90.432-201.6-201.6-201.6s-201.6 90.432-201.6 201.6zM734.144 739.307l-69.376-69.376c-44.352 27.968-96.448 44.736-152.768 44.736s-108.416-16.768-152.768-44.736l-69.376 69.376c62.784 44.736 139.328 71.36 222.144 71.36s159.36-26.624 222.144-71.36zM289.856 114.027l69.376 69.376c44.352-27.968 96.448-44.736 152.768-44.736s108.416 16.768 152.768 44.736l69.376-69.376c-62.784-44.736-139.328-71.36-222.144-71.36s-159.36 26.624-222.144 71.36z" />
<glyph unicode="&#xe61f;" glyph-name="help" data-tags="icon-help" d="M512 866.902c-231.353 0-418.902-187.549-418.902-418.902 0-231.355 187.549-418.902 418.902-418.902 231.355 0 418.902 187.547 418.902 418.902 0 231.353-187.547 418.902-418.902 418.902zM0.009 448c0 282.765 229.227 511.991 511.991 511.991 282.763 0 511.991-229.227 511.991-511.991 0-282.763-229.228-511.991-511.991-511.991-282.765 0-511.991 229.228-511.991 511.991zM524.018 633.066c-21.666 3.717-43.948-0.356-62.901-11.495s-33.354-28.626-40.648-49.364c-8.533-24.249-35.106-36.992-59.355-28.461s-36.992 35.104-28.461 59.353c14.591 41.477 43.389 76.451 81.295 98.728s82.472 30.422 125.81 22.988c43.333-7.433 82.64-29.963 110.953-63.6 28.309-33.63 43.808-76.191 43.747-120.15-0.019-71.232-52.829-118.27-90.543-143.408-20.275-13.522-40.219-23.459-54.913-29.989-7.41-3.296-13.656-5.795-18.152-7.508-2.253-0.856-4.078-1.522-5.409-1.996l-1.616-0.568-0.698-0.232-0.070-0.028c-0.014-0.004-0.060-0.019-14.778 44.139l14.717-44.157c-24.385-8.127-50.743 5.050-58.874 29.44-8.122 24.37 5.037 50.71 29.389 58.856l-0.056-0.019c0.004 0 0.010 0.004 0.056 0.019l0.745 0.261c0.717 0.256 1.889 0.684 3.454 1.28 3.142 1.197 7.805 3.058 13.484 5.581 11.491 5.106 26.451 12.623 41.085 22.379 32.097 21.397 49.091 44.161 49.091 65.996v0.070c0.033 21.984-7.717 43.27-21.871 60.088-14.159 16.818-33.81 28.083-55.482 31.799zM465.455 215.277c0 25.707 20.838 46.545 46.545 46.545h0.466c25.707 0 46.545-20.838 46.545-46.545s-20.838-46.545-46.545-46.545h-0.466c-25.707 0-46.545 20.838-46.545 46.545z" />
<glyph unicode="&#xe620;" glyph-name="code" data-tags="icon-code" d="M665.262 760.17c18.175 18.176 47.646 18.176 65.821 0l279.258-279.258c18.175-18.175 18.175-47.646 0-65.821l-279.258-279.258c-18.175-18.175-47.646-18.175-65.821 0s-18.175 47.646 0 65.821l246.347 246.347-246.347 246.347c-18.175 18.177-18.175 47.645 0 65.822zM358.738 760.17c18.176-18.177 18.176-47.645 0-65.822l-246.347-246.347 246.347-246.347c18.176-18.175 18.176-47.646 0-65.821s-47.645-18.175-65.822 0l-279.258 279.258c-18.176 18.175-18.176 47.646 0 65.821l279.258 279.258c18.177 18.176 47.645 18.176 65.822 0z" />
<glyph unicode="&#xe621;" glyph-name="warning" data-tags="icon-alert" d="M512 866.902c-231.353 0-418.902-187.549-418.902-418.902 0-231.355 187.549-418.902 418.902-418.902 231.355 0 418.902 187.547 418.902 418.902 0 231.353-187.547 418.902-418.902 418.902zM0.009 448c0 282.765 229.227 511.991 511.991 511.991 282.763 0 511.991-229.227 511.991-511.991 0-282.763-229.228-511.991-511.991-511.991-282.765 0-511.991 229.228-511.991 511.991zM512 680.723c25.707 0 46.545-20.839 46.545-46.545v-186.179c0-25.707-20.838-46.545-46.545-46.545s-46.545 20.838-46.545 46.545v186.179c0 25.706 20.838 46.545 46.545 46.545zM465.455 261.821c0 25.707 20.838 46.545 46.545 46.545h0.466c25.707 0 46.545-20.838 46.545-46.545s-20.838-46.545-46.545-46.545h-0.466c-25.707 0-46.545 20.838-46.545 46.545z" />
<glyph unicode="&#xe622;" glyph-name="edit" data-tags="icon-edit" d="M43.507 823.918c26.042 26.042 61.362 40.672 98.192 40.672h324.015c25.565 0 46.288-20.724 46.288-46.288s-20.723-46.288-46.288-46.288h-324.015c-12.276 0-24.049-4.876-32.731-13.558s-13.558-20.454-13.558-32.731v-648.028c0-12.275 4.876-24.052 13.558-32.731s20.454-13.558 32.731-13.558h648.028c12.275 0 24.052 4.879 32.731 13.558s13.558 20.454 13.558 32.731v324.015c0 25.565 20.723 46.288 46.288 46.288s46.288-20.723 46.288-46.288v-324.015c0-36.831-14.632-72.149-40.673-98.19s-61.359-40.673-98.19-40.673h-648.028c-36.829 0-72.149 14.632-98.192 40.673s-40.672 61.359-40.672 98.19v648.028c0 36.829 14.631 72.149 40.672 98.192zM882.302 870.195c-13.766 0-26.968-5.469-36.701-15.202l-430.666-430.669-24.468-97.87 97.872 24.468 430.666 430.669c9.735 9.733 15.201 22.935 15.201 36.701s-5.467 26.968-15.201 36.701c-9.735 9.733-22.935 15.202-36.701 15.202zM780.141 920.454c27.097 27.095 63.845 42.316 102.162 42.316s75.070-15.222 102.162-42.316c27.097-27.095 42.316-63.843 42.316-102.162s-15.22-75.066-42.316-102.162l-439.733-439.732c-5.93-5.934-13.363-10.141-21.501-12.179l-185.153-46.288c-15.774-3.944-32.46 0.68-43.957 12.179-11.497 11.493-16.119 28.179-12.175 43.955l46.288 185.151c2.035 8.138 6.243 15.571 12.175 21.505l439.733 439.732z" />
<glyph unicode="&#xe623;" glyph-name="image" data-tags="icon-image" d="M153.62 857.577c-28.275 0-51.198-22.922-51.198-51.198v-716.759c0-28.276 22.922-51.198 51.198-51.198h716.759c28.276 0 51.198 22.921 51.198 51.198v716.759c0 28.275-22.921 51.198-51.198 51.198h-716.759zM0.028 806.38c0 84.826 68.766 153.591 153.591 153.591h716.759c84.828 0 153.591-68.766 153.591-153.591v-716.759c0-84.828-68.763-153.591-153.591-153.591h-716.759c-84.826 0-153.591 68.763-153.591 153.591v716.759zM332.81 652.789c-14.138 0-25.598-11.461-25.598-25.598s11.461-25.598 25.598-25.598c14.138 0 25.598 11.461 25.598 25.598s-11.461 25.598-25.598 25.598zM204.817 627.19c0 70.688 57.304 127.993 127.993 127.993s127.993-57.304 127.993-127.993c0-70.688-57.304-127.993-127.993-127.993s-127.993 57.304-127.993 127.993zM680.587 586.596c19.992 19.993 52.411 19.993 72.403 0l255.985-255.986c19.992-19.992 19.992-52.411 0-72.403s-52.411-19.992-72.403 0l-219.784 219.784-526.966-526.967c-19.994-19.992-52.409-19.992-72.404 0s-19.993 52.411 0 72.403l563.169 563.169z" />
<glyph unicode="&#xe624;" glyph-name="info-old" data-tags="icon-info-old" d="M512 810.667c211.712 0 384-172.288 384-384s-172.288-384-384-384-384 172.288-384 384 172.288 384 384 384zM512 938.667c-282.752 0-512-229.248-512-512s229.248-512 512-512 512 229.248 512 512-229.248 512-512 512v0zM576 618.667c0-35.346-28.654-64-64-64s-64 28.654-64 64c0 35.346 28.654 64 64 64s64-28.654 64-64zM576 234.667h-128v192c0 35.328 28.672 64 64 64v0c35.328 0 64-28.672 64-64v-192zM608 170.667h-192c-17.664 0-32 14.336-32 32v0c0 17.664 14.336 32 32 32h192c17.664 0 32-14.336 32-32v0c0-17.664-14.336-32-32-32z" />
<glyph unicode="&#xe625;" glyph-name="insights" data-tags="icon-insights" d="M512 874.667c-145.165 0-256-128.245-256-256 0-109.239 51.951-162.278 115.503-225.83 8.001-8 12.497-18.854 12.497-30.17v-85.333h256v85.333c0 11.315 4.497 22.17 12.497 30.17 63.552 63.552 115.503 116.591 115.503 225.83 0 127.755-110.835 256-256 256zM170.667 618.667c0 170.912 145.165 341.333 341.333 341.333s341.333-170.421 341.333-341.333c0-137.365-66.624-211.831-128-273.647v-110.353c0-11.315-4.497-22.17-12.497-30.17s-18.854-12.497-30.17-12.497h-341.333c-23.564 0-42.667 19.102-42.667 42.667v110.353c-61.376 61.815-128 136.282-128 273.647zM341.333 106.667c0 23.565 19.103 42.667 42.667 42.667h256c23.565 0 42.667-19.102 42.667-42.667s-19.102-42.667-42.667-42.667h-256c-23.564 0-42.667 19.102-42.667 42.667zM384-21.333c0 23.565 19.103 42.667 42.667 42.667h170.667c23.565 0 42.667-19.102 42.667-42.667s-19.102-42.667-42.667-42.667h-170.667c-23.564 0-42.667 19.102-42.667 42.667z" />
<glyph unicode="&#xe626;" glyph-name="locked-2" data-tags="ico-locked-2" d="M748.736 501.995v113.536c0 130.752-105.984 236.736-236.736 236.736s-236.8-105.984-236.8-236.736v-113.472c-62.848-13.248-110.464-69.312-110.464-135.936v-312.512c0-76.416 62.528-138.88 138.88-138.88h416.704c76.416 0 138.88 62.528 138.88 138.88v312.512c0.064 66.624-47.552 122.688-110.464 135.872zM512 748.075c73.088 0 132.608-59.456 132.608-132.608v-110.464h-265.216v110.528c0 73.088 59.52 132.544 132.608 132.544zM553.664 183.467v-29.184c0-22.912-18.752-41.664-41.664-41.664s-41.664 18.752-41.664 41.664v29.184c-16.512 12.672-27.776 31.744-27.776 54.144 0 38.336 31.104 69.44 69.44 69.44s69.44-31.104 69.44-69.44c0-22.4-11.264-41.408-27.776-54.144zM576 970.155c0-35.629-28.654-64.512-64-64.512s-64 28.883-64 64.512c0 35.629 28.654 64.512 64 64.512s64-28.883 64-64.512zM800 905.707c0-35.629-28.654-64.512-64-64.512s-64 28.883-64 64.512c0 35.629 28.654 64.512 64 64.512s64-28.883 64-64.512zM352 905.707c0-35.629-28.654-64.512-64-64.512s-64 28.883-64 64.512c0 35.629 28.654 64.512 64 64.512s64-28.883 64-64.512zM960 744.491c0-35.629-28.654-64.512-64-64.512s-64 28.883-64 64.512c0 35.629 28.654 64.512 64 64.512s64-28.883 64-64.512zM224 744.491c0-35.629-28.654-64.512-64-64.512s-64 28.883-64 64.512c0 35.629 28.654 64.512 64 64.512s64-28.883 64-64.512zM1024 555.179c0-35.629-28.654-64.512-64-64.512s-64 28.883-64 64.512c0 35.629 28.654 64.512 64 64.512s64-28.883 64-64.512zM128 555.179c0-35.629-28.654-64.512-64-64.512s-64 28.883-64 64.512c0 35.629 28.654 64.512 64 64.512s64-28.883 64-64.512z" />
<glyph unicode="&#xe627;" glyph-name="locked-3" data-tags="ico-locked" d="M769.856 556.139v123.968c0 142.784-115.776 258.56-258.56 258.56s-258.56-115.776-258.56-258.56v-123.968c-68.736-14.464-120.768-75.648-120.768-148.416v-341.312c0-83.456 68.288-151.68 151.68-151.68h455.104c83.456 0 151.68 68.288 151.68 151.68v341.312c0.064 72.768-51.904 134.016-120.576 148.416zM511.232 824.875c79.872 0 144.832-64.96 144.832-144.832v-120.64h-289.6v120.704c0 79.808 64.96 144.768 144.768 144.768zM556.8 208.235v-31.936c0-25.024-20.48-45.504-45.504-45.504s-45.504 20.48-45.504 45.504v31.936c-17.984 13.888-30.336 34.624-30.336 59.136 0 41.92 33.984 75.84 75.84 75.84 41.92 0 75.84-33.984 75.84-75.84 0-24.448-12.352-45.248-30.336-59.136z" />
<glyph unicode="&#xe628;" glyph-name="locked" data-tags="icon-locked" d="M186.193 448c-25.705 0-46.544-20.838-46.544-46.544v-325.807c0-25.706 20.839-46.544 46.544-46.544h651.614c25.706 0 46.544 20.838 46.544 46.544v325.807c0 25.706-20.838 46.544-46.544 46.544h-651.614zM46.561 401.456c0 77.118 62.516 139.632 139.632 139.632h651.614c77.118 0 139.632-62.514 139.632-139.632v-325.807c0-77.118-62.514-139.632-139.632-139.632h-651.614c-77.116 0-139.632 62.514-139.632 139.632v325.807zM512 866.895c-49.378 0-96.731-19.615-131.646-54.529s-54.529-82.269-54.529-131.646v-186.176c0-25.706-20.839-46.544-46.544-46.544s-46.544 20.838-46.544 46.544v186.176c0 74.065 29.422 145.097 81.795 197.469s123.404 81.795 197.469 81.795c74.065 0 145.096-29.422 197.467-81.795 52.376-52.372 81.796-123.404 81.796-197.469v-186.176c0-25.706-20.838-46.544-46.544-46.544s-46.544 20.838-46.544 46.544v186.176c0 49.377-19.614 96.731-54.531 131.646-34.912 34.914-82.266 54.529-131.644 54.529z" />
<glyph unicode="&#xe629;" glyph-name="locked-4" data-tags="ico-locked-4" d="M512 938.667c-282.752 0-512-229.248-512-512s229.248-512 512-512 512 229.248 512 512-229.248 512-512 512zM624.192 282.091c7.808-23.296-9.6-47.424-34.176-47.424h-156.032c-24.576 0-41.984 24.128-34.176 47.424l35.52 106.624c-30.976 23.36-51.328 60.16-51.328 101.952 0 70.72 57.344 128 128 128s128-57.28 128-128c0-41.792-20.352-78.592-51.328-101.952l35.52-106.624z" />
<glyph unicode="&#xe62a;" glyph-name="maximise" data-tags="icon-maximise" d="M614.392 908.765c0 28.275 22.921 51.197 51.197 51.197h307.177c28.276 0 51.197-22.922 51.197-51.197v-307.177c0-28.275-22.921-51.197-51.197-51.197s-51.197 22.922-51.197 51.197v255.98h-255.98c-28.276 0-51.197 22.922-51.197 51.197zM51.235 345.608c28.275 0 51.197-22.921 51.197-51.197v-255.98h255.98c28.275 0 51.197-22.921 51.197-51.197s-22.922-51.197-51.197-51.197h-307.177c-28.275 0-51.197 22.921-51.197 51.197v307.177c0 28.276 22.922 51.197 51.197 51.197zM1008.967 944.967c19.992-19.994 19.992-52.408 0-72.403l-358.374-358.372c-19.992-19.992-52.41-19.992-72.401 0s-19.992 52.408 0 72.403l358.374 358.374c19.992 19.993 52.41 19.993 72.401 0zM445.808 381.808c19.992-19.992 19.992-52.41 0-72.401l-358.372-358.374c-19.994-19.992-52.408-19.992-72.403 0s-19.993 52.41 0 72.401l358.374 358.374c19.994 19.992 52.41 19.992 72.403 0z" />
<glyph unicode="&#xe62b;" glyph-name="minimise" data-tags="icon-minimise" d="M51.226 345.606c0 28.276 22.922 51.198 51.198 51.198h307.183c28.276 0 51.198-22.921 51.198-51.198v-307.183c0-28.276-22.921-51.198-51.198-51.198s-51.198 22.921-51.198 51.198v255.985h-255.985c-28.275 0-51.198 22.921-51.198 51.198zM614.394 908.774c28.276 0 51.198-22.922 51.198-51.198v-255.985h255.985c28.276 0 51.198-22.922 51.198-51.198s-22.921-51.198-51.198-51.198h-307.183c-28.276 0-51.198 22.921-51.198 51.198v307.183c0 28.275 22.921 51.198 51.198 51.198zM1008.976 944.976c19.992-19.994 19.992-52.409 0-72.404l-358.38-358.379c-19.992-19.992-52.411-19.992-72.403 0s-19.992 52.409 0 72.404l358.38 358.38c19.992 19.993 52.411 19.993 72.403 0zM445.807 381.807c19.992-19.992 19.992-52.411 0-72.403l-358.379-358.38c-19.994-19.992-52.409-19.992-72.404 0s-19.993 52.411 0 72.403l358.38 358.38c19.994 19.992 52.411 19.992 72.404 0z" />
<glyph unicode="&#xe62c;" glyph-name="minus" data-tags="icon-minus" d="M512 866.902c-231.353 0-418.902-187.549-418.902-418.902 0-231.355 187.549-418.902 418.902-418.902 231.355 0 418.902 187.547 418.902 418.902 0 231.353-187.547 418.902-418.902 418.902zM0.009 448c0 282.765 229.227 511.991 511.991 511.991 282.763 0 511.991-229.227 511.991-511.991 0-282.763-229.228-511.991-511.991-511.991-282.765 0-511.991 229.228-511.991 511.991zM279.277 448c0 25.707 20.839 46.545 46.545 46.545h372.357c25.707 0 46.545-20.838 46.545-46.545s-20.838-46.545-46.545-46.545h-372.357c-25.706 0-46.545 20.838-46.545 46.545z" />
<glyph unicode="&#xe62d;" glyph-name="newtab" data-tags="ico-newtab" d="M832 938.667h-640c-106.048 0-192-85.952-192-192v-640c0-106.048 85.952-192 192-192h640c106.048 0 192 85.952 192 192v640c0 106.048-85.952 192-192 192zM832 42.667h-640c-35.264 0-64 28.736-64 64v640c0 35.264 28.736 64 64 64h256v-256h448v-448c0-35.264-28.736-64-64-64z" />
<glyph unicode="&#xe62e;" glyph-name="add1" data-tags="icon-add" d="M512 959.986c35.347 0 63.999-28.654 63.999-63.999v-895.975c0-35.347-28.652-63.999-63.999-63.999s-63.999 28.652-63.999 63.999v895.975c0 35.345 28.652 63.999 63.999 63.999zM0.014 448c0 35.347 28.654 63.999 63.999 63.999h895.975c35.347 0 63.999-28.652 63.999-63.999s-28.652-63.999-63.999-63.999h-895.975c-35.345 0-63.999 28.652-63.999 63.999z" />
<glyph unicode="&#xe62f;" glyph-name="open-source" data-tags="icon-open-source" d="M512 959.982c-282.209 0-511.982-229.774-511.982-511.982 0-208.625 125.154-388.77 304.808-468.347 5.548-2.522 12.032-3.992 18.86-3.992 20.028 0 37.104 12.65 43.67 30.396l0.105 0.322 95.179 262.9c1.76 4.713 2.778 10.158 2.778 15.841 0 18.102-10.333 33.791-25.423 41.49l-0.264 0.122c0 0-67.361 29.733-67.361 121.269s69.816 139.632 139.632 139.632c69.816 0 139.632-48.095 139.632-139.632s-67.361-121.269-67.361-121.269c-15.353-7.82-25.687-23.509-25.687-41.611 0-5.683 1.019-11.128 2.883-16.163l-0.105 0.322 95.179-262.9c6.68-18.051 23.745-30.684 43.761-30.684 6.797 0 13.254 1.457 19.076 4.075l-0.295-0.118c179.685 79.567 304.899 259.703 304.899 468.347 0 282.21-229.776 511.982-511.982 511.982zM512 866.895c231.899 0 418.895-186.994 418.895-418.895 0-153.151-84.21-283.171-206.357-356.26l-64.997 179.631c34.574 26.544 85.179 75.41 85.179 176.631 0 141.183-116.36 232.719-232.719 232.719s-232.719-91.536-232.719-232.719c0-101.221 50.604-150.087 85.179-176.631l-65.089-179.539c-122.078 73.104-206.265 203.069-206.265 356.17 0 231.901 186.994 418.895 418.895 418.895z" />
<glyph unicode="&#xe630;" glyph-name="add, plus" data-tags="icon-plus" d="M512 866.902c-231.353 0-418.902-187.549-418.902-418.902 0-231.355 187.549-418.902 418.902-418.902 231.355 0 418.902 187.547 418.902 418.902 0 231.353-187.547 418.902-418.902 418.902zM0.009 448c0 282.765 229.227 511.991 511.991 511.991 282.763 0 511.991-229.227 511.991-511.991 0-282.763-229.228-511.991-511.991-511.991-282.765 0-511.991 229.228-511.991 511.991zM512 680.723c25.707 0 46.545-20.839 46.545-46.545v-372.357c0-25.707-20.838-46.545-46.545-46.545s-46.545 20.838-46.545 46.545v372.357c0 25.706 20.838 46.545 46.545 46.545zM279.277 448c0 25.707 20.839 46.545 46.545 46.545h372.357c25.707 0 46.545-20.838 46.545-46.545s-20.838-46.545-46.545-46.545h-372.357c-25.706 0-46.545 20.838-46.545 46.545z" />
<glyph unicode="&#xe631;" glyph-name="puzzle" data-tags="icon-puzzle" d="M276.492 862.452h123.353c3.308-13.098 8.306-28.036 15.903-43.231 11.666-23.33 29.928-48.144 58.237-67.016 28.612-19.076 64.571-30.122 108.196-30.122s79.585 11.046 108.196 30.122c28.309 18.872 46.57 43.686 58.238 67.016 7.596 15.193 12.595 30.133 15.901 43.231h123.356c21.303 0 38.579-17.273 38.579-38.581v-123.353c-13.096-3.308-28.036-8.306-43.23-15.903-23.331-11.666-48.145-29.929-67.015-58.237-19.074-28.613-30.123-64.571-30.123-108.196s11.049-79.585 30.123-108.196c18.87-28.309 43.683-46.57 67.015-58.238 15.193-7.596 30.133-12.595 43.23-15.901v-123.356c0-21.307-17.276-38.579-38.579-38.579h-165.324c-26.818 0-48.575-21.645-48.76-48.418 0-0.054-0.005-0.151-0.010-0.293-0.015-0.454-0.054-1.346-0.142-2.609-0.181-2.54-0.57-6.49-1.379-11.356-1.663-9.966-4.89-22.512-10.868-34.463-5.881-11.761-13.935-22.039-25.106-29.485-10.863-7.245-27.544-13.746-54.103-13.746s-43.24 6.499-54.103 13.746c-11.171 7.445-19.225 17.724-25.106 29.485-5.978 11.951-9.211 24.497-10.868 34.463-0.815 4.866-1.2 8.816-1.379 11.356-0.093 1.263-0.127 2.155-0.142 2.609-0.005 0.142-0.010 0.239-0.010 0.293-0.185 26.769-21.942 48.418-48.76 48.418h-165.321c-21.307 0-38.581 17.271-38.581 38.579v165.324c0 26.818-21.647 48.575-48.42 48.76-0.053 0-0.15 0.005-0.291 0.010-0.453 0.015-1.343 0.049-2.606 0.142-2.542 0.181-6.492 0.566-11.359 1.379-9.966 1.658-22.51 4.89-34.462 10.868-11.762 5.881-22.040 13.935-29.488 25.106-7.244 10.863-13.743 27.544-13.743 54.103s6.499 43.24 13.743 54.103c7.446 11.171 17.726 19.226 29.488 25.107 11.953 5.976 24.495 9.208 34.462 10.868 4.867 0.811 8.817 1.198 11.359 1.379 1.263 0.090 2.152 0.128 2.606 0.143 0.142 0.005 0.24 0.007 0.293 0.009 26.772 0.183 48.419 21.942 48.419 48.757v165.321c0 21.307 17.273 38.581 38.581 38.581zM490.574 911.551c-0.185 26.772-21.942 48.419-48.76 48.419h-165.321c-75.165 0-136.099-60.934-136.099-136.099v-123.353c-13.098-3.308-28.036-8.306-43.231-15.903-23.33-11.666-48.144-29.929-67.016-58.237-19.076-28.613-30.122-64.571-30.122-108.196s11.046-79.585 30.122-108.196c18.872-28.309 43.686-46.57 67.016-58.238 15.193-7.596 30.133-12.595 43.231-15.901v-123.356c0-75.163 60.934-136.097 136.099-136.097h123.353c3.308-13.096 8.306-28.036 15.903-43.23 11.666-23.331 29.928-48.145 58.237-67.015 28.612-19.079 64.571-30.123 108.196-30.123s79.585 11.044 108.196 30.123c28.309 18.87 46.57 43.683 58.238 67.015 7.596 15.193 12.595 30.133 15.901 43.23h123.356c75.163 0 136.097 60.935 136.097 136.097v165.324c0 26.818-21.649 48.575-48.418 48.76-0.054 0-0.151 0.005-0.293 0.010-0.454 0.015-1.346 0.049-2.609 0.142-2.54 0.181-6.49 0.566-11.356 1.379-9.966 1.658-22.507 4.89-34.463 10.868-11.761 5.881-22.039 13.935-29.485 25.106-7.245 10.863-13.746 27.544-13.746 54.103s6.499 43.24 13.746 54.103c7.445 11.171 17.724 19.226 29.485 25.107 11.956 5.976 24.497 9.208 34.463 10.868 4.866 0.811 8.816 1.198 11.356 1.379 1.263 0.090 2.155 0.128 2.609 0.143 0.142 0.005 0.239 0.007 0.293 0.009 26.769 0.183 48.418 21.942 48.418 48.757v165.321c0 75.166-60.935 136.099-136.097 136.099h-165.324c-26.818 0-48.575-21.646-48.76-48.418 0 0.030 0 0.043 0 0.042v-0.337c0-0.023 0-0.047 48.76-0.047zM673.791 911.553c0-0.051-0.005-0.15-0.010-0.294-0.015-0.453-0.054-1.343-0.142-2.606-0.181-2.542-0.57-6.491-1.379-11.359-1.663-9.966-4.89-22.51-10.868-34.462-5.881-11.762-13.935-22.040-25.106-29.488-10.863-7.243-27.544-13.743-54.103-13.743s-43.24 6.5-54.103 13.743c-11.171 7.446-19.225 17.726-25.106 29.488-5.978 11.953-9.211 24.495-10.868 34.462-0.815 4.867-1.2 8.817-1.379 11.359-0.093 1.263-0.127 2.152-0.142 2.606-0.005 0.142-0.010 0.24-0.010 0.293zM490.574 911.595c0 0 0 0 0 0zM189.536 609.792v0z" />
<glyph unicode="&#xe632;" glyph-name="refresh" data-tags="icon-refresh" d="M981.333 832c-23.564 0-42.667-19.103-42.667-42.667v0-213.333h-213.333c-23.564 0-42.667-19.103-42.667-42.667v0c0-23.564 19.103-42.667 42.667-42.667v0h256c23.563 0.002 42.664 19.103 42.667 42.666v0 256c0 23.564-19.103 42.667-42.667 42.667v0zM572.083 870.333c-91.586 12.991-184.912-4.085-265.917-48.75s-145.356-114.531-183.25-198.917c-37.894-84.385-47.351-178.781-26.917-269 20.434-90.216 69.695-171.343 140.25-231.167 70.556-59.819 158.655-95.096 251-100.5s183.95 19.313 261 70.5c77.050 51.187 135.437 126.029 166.25 213.25 1.551 4.241 2.448 9.137 2.448 14.243 0 18.498-11.772 34.247-28.233 40.164l-0.298 0.093c-4.227 1.54-9.107 2.431-14.195 2.431-18.461 0-34.183-11.725-40.128-28.134l-0.094-0.297c-24.653-69.784-71.349-129.71-133-170.667s-134.866-60.74-208.75-56.417c-73.888 4.324-144.38 32.554-200.833 80.417-56.454 47.867-95.817 112.735-112.167 184.917-16.35 72.187-8.82 147.732 21.5 215.25s81.77 123.345 146.583 159.083c64.814 35.738 139.472 49.394 212.75 39 73.283-10.394 141.18-44.314 193.5-96.667 0.271-0.255 0.57-0.527 0.872-0.794l0.045-0.039 197.583-186.083c7.619-7.187 17.919-11.605 29.251-11.605 12.243 0 23.282 5.157 31.063 13.417l0.020 0.021c7.187 7.619 11.605 17.919 11.605 29.251 0 12.243-5.157 23.282-13.417 31.063l-0.021 0.020-196.667 185.167c-65.378 65.383-150.283 107.765-241.833 120.75z" />
<glyph unicode="&#xe633;" glyph-name="reload" data-tags="icon-reload" d="M981.304 831.976c23.564 0 42.664-19.102 42.664-42.664v-255.984c0-23.564-19.101-42.664-42.664-42.664h-255.984c-23.564 0-42.664 19.101-42.664 42.664s19.101 42.664 42.664 42.664h213.32v213.32c0 23.563 19.101 42.664 42.664 42.664zM0.032 362.672c0 23.564 19.102 42.664 42.664 42.664h255.984c23.563 0 42.664-19.101 42.664-42.664s-19.102-42.664-42.664-42.664h-213.32v-213.32c0-23.564-19.102-42.664-42.664-42.664s-42.664 19.101-42.664 42.664v255.984zM606.599 775.789c-55.383 16.020-113.926 17.749-170.156 5.026-56.235-12.723-108.329-39.486-151.424-77.787s-75.783-86.898-95.016-141.249c-7.861-22.213-32.24-33.846-54.453-25.987-22.213 7.861-33.848 32.239-25.987 54.453 24.042 67.941 64.903 128.684 118.771 176.562s118.986 81.33 189.277 97.234c70.293 15.905 143.466 13.743 212.701-6.282 69.009-19.962 131.858-57.025 182.722-107.749l197.488-185.569c17.172-16.136 18.009-43.136 1.877-60.308-16.136-17.168-43.137-18.009-60.31-1.873l-197.961 186.013c-0.324 0.305-0.644 0.616-0.96 0.931-40.756 40.778-91.181 70.568-146.568 86.589zM11.604 391.906c16.135 17.172 43.135 18.013 60.307 1.877l197.961-186.015c0.325-0.307 0.645-0.619 0.96-0.934 40.758-40.778 91.182-70.567 146.567-86.587s113.927-17.748 170.158-5.026c56.235 12.722 108.328 39.486 151.424 77.789 43.095 38.3 75.784 86.894 95.017 141.248 7.859 22.216 32.241 33.85 54.452 25.986 22.211-7.859 33.85-32.237 25.986-54.452-24.041-67.938-64.901-128.683-118.768-176.561s-118.986-81.33-189.279-97.236c-70.294-15.905-143.466-13.742-212.7 6.285-69.011 19.958-131.861 57.024-182.724 107.748l-197.487 185.571c-17.171 16.136-18.012 43.133-1.876 60.305z" />
<glyph unicode="&#xe634;" glyph-name="search" data-tags="icon-search" d="M460.803 857.569c-197.924 0-358.374-160.45-358.374-358.374s160.45-358.374 358.374-358.374c197.924 0 358.374 160.448 358.374 358.374s-160.448 358.374-358.374 358.374zM0.038 499.197c0 254.473 206.292 460.765 460.765 460.765 254.476 0 460.765-206.292 460.765-460.765 0-254.476-206.29-460.765-460.765-460.765-254.473 0-460.765 206.29-460.765 460.765zM713.881 246.119c19.992 19.992 52.41 19.992 72.401 0l222.703-222.703c19.992-19.992 19.992-52.41 0-72.401s-52.41-19.992-72.401 0l-222.703 222.703c-19.992 19.992-19.992 52.41 0 72.401z" />
<glyph unicode="&#xe635;" glyph-name="users, segment" data-tags="icon-segment" d="M384 362.667c-49.013 0-94.153-26.396-124.667-67.083-30.514-40.683-46-92.511-46-146.25v-85.333c0-23.564 19.103-42.667 42.667-42.667v0c23.564 0 42.667 19.103 42.667 42.667v0 85.333c0 36.791 11.421 71.758 28.917 95.083 17.496 23.33 37.534 32.917 56.417 32.917h256c18.88 0 38.838-9.588 56.333-32.917 0.012 0 0.027 0 0.042 0s0.029 0 0.044 0h-0.002c17.495-23.326 28.917-58.293 28.917-95.083v-85.333c0-23.564 19.103-42.667 42.667-42.667v0c23.564 0 42.667 19.103 42.667 42.667v0 85.333c0 53.74-15.487 105.568-46 146.25-30.514 40.688-75.655 67.083-124.667 67.083h-256zM810.667 405.333c-23.564 0-42.667-19.103-42.667-42.667v0c0-23.564 19.103-42.667 42.667-42.667v0h64c13.221 0 27.835-6.588 41.333-24.583 13.493-17.992 22.667-45.758 22.667-75v-71.083c0-23.564 19.103-42.667 42.667-42.667v0c23.564 0 42.667 19.103 42.667 42.667v0 71.083c0 46.193-13.239 90.817-39.75 126.167-26.514 35.347-66.228 58.75-109.583 58.75h-64zM149.333 405.333c-43.356 0-83.071-23.401-109.583-58.75-26.514-35.35-39.75-79.974-39.75-126.167v-71.083c0-23.564 19.103-42.667 42.667-42.667v0c23.564 0 42.667 19.103 42.667 42.667v0 71.083c0 29.242 9.173 57.009 22.667 75 13.495 17.993 28.11 24.583 41.333 24.583h64c23.564 0 42.667 19.103 42.667 42.667v0c0 23.564-19.103 42.667-42.667 42.667v0h-64zM512 874.667c-117.315 0-213.333-96.018-213.333-213.333s96.018-213.333 213.333-213.333c117.314 0 213.333 96.017 213.333 213.333s-96.019 213.333-213.333 213.333zM512 789.333c71.196 0 128-56.803 128-128s-56.804-128-128-128c-71.198 0-128 56.802-128 128s56.802 128 128 128zM799.167 785.417c-19.723-0.129-36.259-13.621-41.018-31.87l-0.066-0.297c-0.828-3.141-1.303-6.748-1.303-10.465 0-19.853 13.56-36.54 31.924-41.303l0.296-0.065c36.871-9.3 64.333-42.418 64.333-82.75 0-47.632-37.703-85.333-85.333-85.333-2.337 0-4.612 0.066-6.917 0.25-1.015 0.086-2.197 0.135-3.39 0.135-22.35 0-40.687-17.185-42.517-39.063l-0.010-0.155c-0.086-1.015-0.135-2.197-0.135-3.39 0-22.35 17.185-40.687 39.063-42.517l0.155-0.010c4.53-0.362 9.115-0.583 13.75-0.583 93.75 0 170.667 76.915 170.667 170.667 0 79.383-54.686 146.798-128.833 165.5-3.080 0.795-6.617 1.252-10.26 1.252-0.143 0-0.286-0.001-0.429-0.002h0.022zM223.667 785.417c-3.402-0.064-6.668-0.516-9.795-1.314l0.295 0.064c-74.147-18.702-128.833-86.118-128.833-165.5 0-93.751 76.915-170.667 170.667-170.667 4.635 0 9.219 0.221 13.75 0.583 22.033 1.84 39.218 20.177 39.218 42.527 0 1.193-0.049 2.375-0.145 3.543l0.010-0.153c-1.84 22.033-20.177 39.218-42.527 39.218-1.193 0-2.375-0.049-3.543-0.145l0.153 0.010c-2.3-0.184-4.58-0.25-6.917-0.25-47.633 0-85.333 37.7-85.333 85.333 0 40.333 27.462 73.45 64.333 82.75 18.66 4.828 32.22 21.515 32.22 41.368 0 3.717-0.475 7.324-1.369 10.762l0.065-0.297c-4.844 18.638-21.519 32.176-41.357 32.176-0.314 0-0.627-0.003-0.94-0.010l0.047 0.001z" />
<glyph unicode="&#xe636;" glyph-name="server-alt" data-tags="ico-server-alt" d="M870.336 10.667c-6.016 0-12.096 1.408-17.792 4.416-18.752 9.856-25.984 33.152-16.128 51.904 220.864 419.712 12.48 702.208 3.52 714.048-12.8 16.832-9.6 40.896 7.168 53.76 16.768 12.736 40.768 9.792 53.76-7.040 10.24-13.312 248.192-331.648 3.584-796.48-6.912-13.12-20.288-20.608-34.112-20.608zM144.128 10.667c-13.824 0-27.2 7.488-34.048 20.544-244.608 464.832-6.656 783.168 3.584 796.48 12.992 16.832 36.992 19.776 53.76 7.040 16.768-12.8 19.968-36.864 7.168-53.76-9.024-11.84-217.408-294.336 3.52-713.984 9.856-18.752 2.624-41.984-16.128-51.904-5.696-2.944-11.84-4.416-17.856-4.416zM736 234.667h-480c-35.328 0-64-28.672-64-64v-64c0-35.328 28.672-64 64-64h480c35.328 0 64 28.672 64 64v64c0 35.328-28.672 64-64 64zM512 106.667h-224v64h224v-64zM672 106.667c-17.664 0-32 14.336-32 32s14.336 32 32 32 32-14.336 32-32c0-17.664-14.336-32-32-32zM736 490.667h-480c-35.328 0-64-28.672-64-64v-64c0-35.328 28.672-64 64-64h480c35.328 0 64 28.672 64 64v64c0 35.328-28.672 64-64 64zM512 362.667h-224v64h224v-64zM672 362.667c-17.664 0-32 14.336-32 32s14.336 32 32 32 32-14.336 32-32c0-17.664-14.336-32-32-32zM736 746.667h-480c-35.328 0-64-28.672-64-64v-64c0-35.328 28.672-64 64-64h480c35.328 0 64 28.672 64 64v64c0 35.328-28.672 64-64 64zM512 618.667h-224v64h224v-64zM672 618.667c-17.664 0-32 14.336-32 32s14.336 32 32 32 32-14.336 32-32c0-17.664-14.336-32-32-32z" />
<glyph unicode="&#xe637;" glyph-name="server" data-tags="icon-server" d="M139.649 866.895c-25.705 0-46.544-20.839-46.544-46.544v-186.176c0-25.705 20.839-46.544 46.544-46.544h744.702c25.706 0 46.544 20.839 46.544 46.544v186.176c0 25.705-20.838 46.544-46.544 46.544h-744.702zM0.018 820.351c0 77.116 62.516 139.632 139.632 139.632h744.702c77.118 0 139.632-62.516 139.632-139.632v-186.176c0-77.116-62.514-139.632-139.632-139.632h-744.702c-77.116 0-139.632 62.516-139.632 139.632v186.176zM139.649 308.368c-25.705 0-46.544-20.838-46.544-46.544v-186.176c0-25.706 20.839-46.544 46.544-46.544h744.702c25.706 0 46.544 20.838 46.544 46.544v186.176c0 25.706-20.838 46.544-46.544 46.544h-744.702zM0.018 261.824c0 77.118 62.516 139.632 139.632 139.632h744.702c77.118 0 139.632-62.514 139.632-139.632v-186.176c0-77.118-62.514-139.632-139.632-139.632h-744.702c-77.116 0-139.632 62.514-139.632 139.632v186.176zM186.193 727.263c0 25.705 20.839 46.544 46.544 46.544h0.466c25.705 0 46.544-20.839 46.544-46.544s-20.838-46.544-46.544-46.544h-0.466c-25.705 0-46.544 20.839-46.544 46.544zM186.193 168.737c0 25.706 20.839 46.544 46.544 46.544h0.466c25.705 0 46.544-20.838 46.544-46.544s-20.838-46.544-46.544-46.544h-0.466c-25.705 0-46.544 20.838-46.544 46.544z" />
<glyph unicode="&#xe638;" glyph-name="hide" data-tags="icon-hide" d="M511.902 746.666c-26.859 0.063-53.628-2.996-79.778-9.117-22.944-5.37-45.897 8.876-51.267 31.82s8.876 45.897 31.82 51.268c32.572 7.624 65.92 11.437 99.375 11.363 0.017 0 0.034 0 0.047 0l-0.098-42.667v42.667c0.017 0 0.034 0 0.051 0 166.353-0.018 294.165-95.003 377.741-184.151 42.185-44.994 74.385-89.824 96.051-123.367 10.854-16.811 19.136-30.899 24.759-40.896 2.816-5.005 4.971-8.99 6.451-11.797 0.742-1.399 1.318-2.509 1.728-3.298l0.482-0.951 0.149-0.29 0.047-0.098c0.009-0.017 0.034-0.068-38.127-19.149l-37.628 20.113c-3.597-6.733-7.3-13.406-11.098-20.019-4.659 8.043-10.82 18.278-18.449 30.089-19.669 30.46-48.802 70.962-86.618 111.302-76.416 81.51-183.253 157.181-315.541 157.181h-0.098zM932.608 448.094c-22.076-38.417-47.535-74.807-76.083-108.732-15.168-18.031-12.851-44.945 5.18-60.117 18.027-15.172 44.945-12.855 60.117 5.175 37.282 44.314 69.841 92.395 97.139 143.467 6.524 12.203 6.724 26.816 0.533 39.194l-38.161-19.081c-38.161-19.081-38.157-19.093-38.153-19.106l-0.030 0.060-0.26 0.516c-0.26 0.499-0.678 1.31-1.259 2.406-1.161 2.193-2.965 5.542-5.402 9.873-1.084 1.924-2.291 4.045-3.622 6.345zM292.471 727.334c14.301-18.729 10.712-45.504-8.016-59.805-78.294-59.786-143.884-134.468-193.038-219.665 4.654-8.038 10.81-18.257 18.425-30.050 19.67-30.455 48.8-70.959 86.619-111.3 76.348-81.438 183.065-157.047 315.19-157.18 82.466 1.421 162.325 29.154 227.925 79.159 18.739 14.285 45.513 10.671 59.797-8.068s10.675-45.513-8.068-59.797c-80.175-61.116-177.805-94.976-278.609-96.623l-0.695-0.004c-166.379 0-294.209 94.993-377.794 184.149-42.182 44.996-74.385 89.826-96.048 123.366-10.858 16.815-19.138 30.899-24.762 40.9-2.814 5.001-4.968 8.99-6.452 11.793-0.742 1.404-1.317 2.509-1.724 3.302l-0.484 0.947-0.147 0.29-0.050 0.102c-0.008 0.013-0.034 0.068 38.128 19.149l-38.162-19.081c-6.2 12.399-5.989 27.038 0.566 39.253 55.949 104.267 133.549 195.363 227.595 267.177 18.728 14.301 45.504 10.712 59.805-8.016zM452.762 567.539c16.064-17.24 15.113-44.237-2.129-60.301-8.384-7.812-15.108-17.233-19.772-27.703-4.664-10.466-7.171-21.764-7.374-33.225-0.202-11.456 1.905-22.839 6.196-33.463s10.679-20.279 18.786-28.382c8.102-8.102 17.754-14.49 28.378-18.782 10.628-4.292 22.007-6.4 33.463-6.195 11.46 0.201 22.758 2.709 33.229 7.373 10.466 4.663 19.887 11.388 27.699 19.772 16.064 17.242 43.063 18.193 60.301 2.129 17.242-16.064 18.193-43.063 2.129-60.301-15.625-16.768-34.466-30.221-55.403-39.548-20.932-9.327-43.533-14.345-66.449-14.746-22.916-0.405-45.675 3.81-66.927 12.395-21.251 8.58-40.556 21.359-56.762 37.564s-28.982 35.511-37.566 56.764c-8.584 21.248-12.799 44.011-12.395 66.927s5.42 45.517 14.748 66.449c9.328 20.936 22.777 39.778 39.545 55.402 17.24 16.064 44.238 15.111 60.302-2.129zM12.497 947.503c16.662 16.662 43.677 16.662 60.34 0l938.666-938.667c16.661-16.661 16.661-43.678 0-60.339s-43.678-16.661-60.339 0l-938.667 938.666c-16.662 16.663-16.662 43.678 0 60.34z" />
<glyph unicode="&#xe639;" glyph-name="show" data-tags="icon-show" d="M91.338 448c4.663 8.060 10.845 18.33 18.503 30.187 19.67 30.455 48.8 70.959 86.619 111.299 76.415 81.51 183.252 157.181 315.54 157.181s239.125-75.672 315.541-157.181c37.815-40.34 66.948-80.843 86.618-111.299 7.659-11.857 13.841-22.127 18.505-30.187-4.663-8.060-10.846-18.33-18.505-30.187-19.669-30.455-48.802-70.959-86.618-111.3-76.416-81.506-183.253-157.18-315.541-157.18s-239.124 75.674-315.54 157.18c-37.818 40.341-66.949 80.845-86.619 111.3-7.658 11.857-13.84 22.127-18.503 30.187zM981.333 448c38.161 19.081 38.157 19.098 38.148 19.11l-0.068 0.137-0.149 0.294-0.482 0.947c-0.41 0.789-0.986 1.899-1.728 3.302-1.481 2.803-3.635 6.793-6.451 11.793-5.623 10.001-13.905 24.085-24.759 40.896-21.666 33.544-53.867 78.374-96.051 123.368-83.584 89.157-211.413 184.152-377.792 184.152s-294.209-94.995-377.794-184.152c-42.182-44.994-74.385-89.824-96.048-123.368-10.858-16.811-19.138-30.895-24.762-40.896-2.814-5.001-4.968-8.99-6.452-11.793-0.742-1.404-1.317-2.513-1.724-3.302l-0.484-0.947-0.147-0.294-0.050-0.098c-0.008-0.017-0.034-0.068 38.128-19.149l-38.162 19.081c-6.006-12.011-6.006-26.15 0-38.161l38.162 19.081c-38.162-19.081-38.17-19.063-38.162-19.081l0.084-0.166 0.147-0.294 0.484-0.947c0.407-0.789 0.982-1.899 1.724-3.302 1.484-2.803 3.638-6.793 6.452-11.793 5.624-10.001 13.904-24.085 24.762-40.896 21.663-33.545 53.866-78.374 96.048-123.366 83.585-89.161 211.415-184.154 377.794-184.154s294.208 94.993 377.792 184.154c42.185 44.992 74.385 89.822 96.051 123.366 10.854 16.811 19.136 30.895 24.759 40.896 2.816 5.001 4.971 8.99 6.451 11.793 0.742 1.404 1.318 2.513 1.728 3.302l0.482 0.947 0.149 0.294 0.047 0.098c0.009 0.017 0.034 0.068-38.127 19.149zM981.333 448l38.161-19.081c6.007 12.011 5.99 26.18-0.013 38.191l-38.148-19.11zM512 533.333c-47.13 0-85.333-38.204-85.333-85.333s38.204-85.333 85.333-85.333c47.13 0 85.333 38.204 85.333 85.333s-38.204 85.333-85.333 85.333zM341.333 448c0 94.257 76.41 170.667 170.667 170.667 94.255 0 170.667-76.41 170.667-170.667 0-94.255-76.412-170.667-170.667-170.667-94.257 0-170.667 76.412-170.667 170.667z" />
<glyph unicode="&#xe63a;" glyph-name="arrow-top" data-tags="icon-arrow-top" d="M512 959.952c35.344 0 63.995-28.652 63.995-63.995v-895.916c0-35.344-28.65-63.995-63.995-63.995s-63.995 28.65-63.995 63.995v895.916c0 35.343 28.65 63.995 63.995 63.995zM466.749 941.209c24.989 24.991 65.511 24.991 90.5 0l447.959-447.959c24.989-24.989 24.989-65.511 0-90.5s-65.511-24.989-90.5 0l-402.708 402.708-402.708-402.708c-24.992-24.989-65.509-24.989-90.502 0s-24.991 65.511 0 90.5l447.959 447.959z" />
<glyph unicode="&#xe63b;" glyph-name="arrow-bottom" data-tags="icon-arrow-bottom" d="M512 959.964c35.345 0 63.996-28.652 63.996-63.996v-895.937c0-35.345-28.651-63.996-63.996-63.996s-63.996 28.651-63.996 63.996v895.937c0 35.344 28.651 63.996 63.996 63.996zM18.779 493.252c24.993 24.99 65.511 24.99 90.504 0l402.717-402.717 402.717 402.717c24.99 24.99 65.512 24.99 90.502 0s24.99-65.512 0-90.502l-447.969-447.969c-24.99-24.99-65.512-24.99-90.502 0l-447.969 447.969c-24.991 24.99-24.991 65.512 0 90.502z" />
<glyph unicode="&#xe63c;" glyph-name="star" data-tags="icon-star" d="M512 959.965c17.714 0 33.897-10.056 41.734-25.942l132.999-269.437 297.424-43.472c17.523-2.561 32.077-14.85 37.541-31.699s0.889-35.338-11.798-47.696l-215.175-209.582 50.777-296.083c2.998-17.458-4.184-35.106-18.515-45.523-14.335-10.412-33.338-11.784-49.019-3.538l-265.971 139.873-265.967-139.873c-15.681-8.248-34.684-6.874-49.018 3.538-14.334 10.416-21.513 28.065-18.518 45.523l50.782 296.083-215.175 209.582c-12.689 12.358-17.262 30.848-11.8 47.696s20.016 29.136 37.542 31.699l297.423 43.472 132.996 269.437c7.842 15.886 24.020 25.942 41.734 25.942zM512 808.272l-102.079-206.805c-6.774-13.723-19.861-23.239-35.004-25.452l-228.347-33.376 165.194-160.897c10.978-10.696 15.989-26.106 13.399-41.208l-38.976-227.253 204.153 107.363c13.562 7.131 29.763 7.131 43.326 0l204.149-107.363-38.974 227.253c-2.587 15.103 2.421 30.513 13.4 41.208l165.193 160.897-228.346 33.376c-15.145 2.213-28.228 11.73-35.005 25.452l-102.081 206.805z" />
<glyph unicode="&#xe63d;" glyph-name="success" data-tags="icon-success" d="M729.536 622.030c19-17.319 20.358-46.758 3.039-65.755l-254.604-279.267c-8.844-9.7-21.368-15.216-34.49-15.187-13.126 0.028-25.629 5.595-34.432 15.327l-117.754 130.241c-17.24 19.070-15.758 48.504 3.31 65.745s48.501 15.756 65.74-3.314l83.371-92.21 220.063 241.381c17.319 18.997 46.759 20.357 65.753 3.038zM512 866.902c-231.353 0-418.902-187.549-418.902-418.902 0-231.355 187.549-418.902 418.902-418.902 231.355 0 418.902 187.547 418.902 418.902 0 231.353-187.547 418.902-418.902 418.902zM0.009 448c0 282.765 229.227 511.991 511.991 511.991 282.763 0 511.991-229.227 511.991-511.991 0-282.763-229.228-511.991-511.991-511.991-282.765 0-511.991 229.228-511.991 511.991z" />
<glyph unicode="&#xe63e;" glyph-name="table-more" data-tags="icon-table-more" d="M213.333 874.667c-33.931 0-66.507-13.506-90.5-37.5s-37.5-56.569-37.5-90.5v-597.333c0-33.93 13.508-66.507 37.5-90.5 23.994-23.995 56.569-37.5 90.5-37.5h341.333c23.564 0 42.667 19.103 42.667 42.667v0c0 23.564-19.103 42.667-42.667 42.667v0h-128v426.667h426.667v-128c0-23.564 19.103-42.667 42.667-42.667v0c23.564 0 42.667 19.103 42.667 42.667v0 341.333c0 33.931-13.505 66.506-37.5 90.5-23.993 23.992-56.57 37.5-90.5 37.5h-597.333zM213.333 789.333h128v-170.667h-170.667v128c0 11.332 4.487 22.154 12.5 30.167s18.834 12.5 30.167 12.5zM426.667 789.333h384c11.33 0 22.152-4.485 30.167-12.5 8.013-8.012 12.5-18.834 12.5-30.167v-128h-426.667v170.667zM170.667 533.333h170.667v-426.667h-128c-11.333 0-22.154 4.487-30.167 12.5-8.015 8.015-12.5 18.836-12.5 30.167v384zM768 362.667c-23.564 0-42.667-19.103-42.667-42.667v0-256c0-23.564 19.103-42.667 42.667-42.667v0c23.564 0 42.667 19.103 42.667 42.667v0 256c0 23.564-19.103 42.667-42.667 42.667v0zM640 234.667c-23.564 0-42.667-19.103-42.667-42.667v0c0-23.564 19.103-42.667 42.667-42.667v0h256c23.564 0 42.667 19.103 42.667 42.667v0c0 23.564-19.103 42.667-42.667 42.667v0h-256z" />
<glyph unicode="&#xe63f;" glyph-name="table" data-tags="icon-table" d="M45.006 914.994c28.805 28.805 67.872 44.986 108.608 44.986h716.773c40.738 0 79.803-16.183 108.607-44.986s44.988-67.872 44.988-108.608v-716.773c0-40.738-16.184-79.803-44.988-108.607s-67.868-44.988-108.607-44.988h-716.773c-40.736 0-79.803 16.184-108.608 44.988s-44.986 67.868-44.986 108.607v716.773c0 40.736 16.183 79.803 44.986 108.608zM102.416 652.793h204.793v204.793h-153.594c-13.579 0-26.601-5.394-36.203-14.996s-14.996-22.624-14.996-36.203v-153.594zM409.604 857.584v-204.793h511.981v153.594c0 13.579-5.396 26.601-14.996 36.203s-22.624 14.996-36.203 14.996h-460.783zM921.584 550.396h-511.981v-511.981h460.783c13.577 0 26.603 5.396 36.203 14.996s14.996 22.624 14.996 36.203v460.783zM307.207 38.416v511.981h-204.793v-460.783c0-13.577 5.394-26.603 14.996-36.203s22.624-14.996 36.203-14.996h153.594z" />
<glyph unicode="&#xe640;" glyph-name="tag-cloud" data-tags="icon-tag-cloud" d="M354.706 830.821c-35.459-2.692-70.551-10.362-104.224-22.827-67.345-24.931-126.336-68.263-170.29-125.052s-71.064-124.754-78.313-196.201c-7.25-71.442 5.674-143.485 37.324-207.948 31.651-64.46 80.751-118.758 141.715-156.711 60.964-37.947 131.303-58.039 203.116-57.986h383.904c67.863 0 132.972 26.993 180.955 74.981 47.988 47.983 74.981 113.092 74.981 180.955s-26.993 132.972-74.981 180.955c-47.983 47.988-113.092 74.981-180.955 74.981h-25.661c-20.152 56.343-50.314 108.662-93.894 150.13-52.026 49.502-116.866 83.414-187.203 97.893-35.168 7.239-71.014 9.524-106.473 6.831zM361.205 745.759c27.578 2.093 55.457 0.299 82.812-5.332 54.712-11.261 105.161-37.642 145.631-76.148 40.466-38.505 69.266-87.547 83.229-141.632 4.907-18.544 21.536-31.992 41.305-31.992 0.006 0 0.013 0 0.019 0h53.736c45.27 0 88.631-17.979 120.637-49.988 32.009-32.005 49.988-75.367 49.988-120.637s-17.979-88.631-49.988-120.637c-32.005-32.009-75.367-49.988-120.637-49.988h-383.904c-55.859-0.041-110.621 15.554-158.044 45.072-47.421 29.522-85.603 71.746-110.222 121.887-24.621 50.144-34.715 106.222-29.076 161.793 5.64 55.576 26.794 108.455 60.985 152.629s80.082 77.833 132.467 97.226c26.192 9.697 53.485 15.652 81.063 17.746z" />
<glyph unicode="&#xe641;" glyph-name="user" data-tags="icon-user" d="M126.195 270.624c48.008 48.009 113.12 74.979 181.012 74.979h409.584c67.893 0 133.008-26.971 181.011-74.979 48.009-48.003 74.979-113.117 74.979-181.011v-102.396c0-28.277-22.922-51.198-51.198-51.198s-51.198 22.922-51.198 51.198v102.396c0 40.734-16.184 79.803-44.988 108.607s-67.873 44.988-108.607 44.988h-409.584c-40.736 0-79.803-16.184-108.608-44.988s-44.986-67.873-44.986-108.607v-102.396c0-28.277-22.923-51.198-51.198-51.198s-51.198 22.922-51.198 51.198v102.396c0 67.893 26.97 133.008 74.978 181.011zM512 857.584c-84.83 0-153.594-68.767-153.594-153.594s68.765-153.594 153.594-153.594c84.83 0 153.594 68.767 153.594 153.594s-68.765 153.594-153.594 153.594zM256.010 703.99c0 141.38 114.611 255.99 255.99 255.99s255.99-114.611 255.99-255.99c0-141.38-114.613-255.99-255.99-255.99s-255.99 114.611-255.99 255.99z" />
<glyph unicode="&#xe642;" glyph-name="user-add" data-tags="icon-user-add" d="M62.512 300.19c40.006 40.007 94.264 62.481 150.84 62.481h298.648c56.576 0 110.837-22.476 150.839-62.481 40.007-40.002 62.481-94.262 62.481-150.839v-85.328c0-23.564-19.101-42.664-42.664-42.664s-42.664 19.101-42.664 42.664v85.328c0 33.944-13.486 66.501-37.489 90.503s-56.559 37.489-90.503 37.489h-298.648c-33.946 0-66.501-13.486-90.504-37.489s-37.488-56.559-37.488-90.503v-85.328c0-23.564-19.102-42.664-42.664-42.664s-42.664 19.101-42.664 42.664v85.328c0 56.576 22.475 110.837 62.48 150.839zM362.676 789.312c-70.688 0-127.992-57.304-127.992-127.992s57.304-127.992 127.992-127.992c70.69 0 127.992 57.304 127.992 127.992s-57.302 127.992-127.992 127.992zM149.356 661.32c0 117.814 95.507 213.32 213.32 213.32s213.32-95.507 213.32-213.32c0-117.814-95.508-213.32-213.32-213.32s-213.32 95.507-213.32 213.32zM853.312 661.32c23.564 0 42.664-19.102 42.664-42.664v-255.984c0-23.564-19.101-42.664-42.664-42.664s-42.664 19.101-42.664 42.664v255.984c0 23.563 19.101 42.664 42.664 42.664zM682.656 490.664c0 23.564 19.101 42.664 42.664 42.664h255.984c23.564 0 42.664-19.101 42.664-42.664s-19.101-42.664-42.664-42.664h-255.984c-23.564 0-42.664 19.101-42.664 42.664z" />
<glyph unicode="&#xe643;" glyph-name="remove" data-tags="icon-remove" d="M0.014 448c0 35.347 28.654 63.999 63.999 63.999h895.975c35.347 0 63.999-28.652 63.999-63.999s-28.652-63.999-63.999-63.999h-895.975c-35.345 0-63.999 28.652-63.999 63.999z" />
<glyph unicode="&#xe644;" glyph-name="visitor-profile" data-tags="icon-visitor-profile" d="M128 832c-70.187 0-128-57.813-128-128v-512c0-70.188 57.814-128 128-128h768c70.187 0 128 57.813 128 128v512c0 70.186-57.812 128-128 128h-768zM128 746.667h768c24.071 0 42.667-18.596 42.667-42.667v-512c0-24.072-18.594-42.667-42.667-42.667h-768c-24.070 0-42.667 18.595-42.667 42.667v512c0 24.070 18.597 42.667 42.667 42.667zM327.083 320c-41.477 0-81.257-16.513-110.583-45.833-29.328-29.328-45.833-69.107-45.833-110.583v-56.917c0-23.564 19.103-42.667 42.667-42.667v0c23.564 0 42.667 19.103 42.667 42.667v0 56.917c0 18.88 7.486 36.903 20.833 50.25 13.349 13.346 31.375 20.833 50.25 20.833h199.167c18.878 0 36.902-7.487 50.25-20.833 13.346-13.349 20.833-31.372 20.833-50.25v-56.917c0-23.564 19.103-42.667 42.667-42.667v0c23.564 0 42.667 19.103 42.667 42.667v0 56.917c0 41.479-16.513 81.257-45.833 110.583-29.327 29.321-69.105 45.833-110.583 45.833h-199.167zM426.667 704c-93.751 0-170.667-76.915-170.667-170.667s76.916-170.667 170.667-170.667c93.752 0 170.667 76.915 170.667 170.667 0 93.75-76.914 170.667-170.667 170.667zM426.667 618.667c47.636 0 85.333-37.699 85.333-85.333 0-47.637-37.696-85.333-85.333-85.333-47.634 0-85.333 37.697-85.333 85.333 0 47.633 37.7 85.333 85.333 85.333zM725.333 490.667c-23.564 0-42.667-19.103-42.667-42.667v0c0-23.564 19.103-42.667 42.667-42.667v0h85.333c23.564 0 42.667 19.103 42.667 42.667v0c0 23.564-19.103 42.667-42.667 42.667v0h-85.333zM725.333 618.667c-23.564 0-42.667-19.103-42.667-42.667v0c0-23.564 19.103-42.667 42.667-42.667v0h85.333c23.564 0 42.667 19.103 42.667 42.667v0c0 23.564-19.103 42.667-42.667 42.667v0h-85.333zM768 362.667c-23.564 0-42.667-19.103-42.667-42.667v0c0-23.564 19.103-42.667 42.667-42.667v0h42.667c23.564 0 42.667 19.103 42.667 42.667v0c0 23.564-19.103 42.667-42.667 42.667v0h-42.667z" />
<glyph unicode="&#xe645;" glyph-name="zoom-in" data-tags="icon-zoom-in" d="M460.803 857.569c-197.924 0-358.374-160.45-358.374-358.374s160.45-358.374 358.374-358.374c197.924 0 358.374 160.448 358.374 358.374s-160.448 358.374-358.374 358.374zM0.038 499.197c0 254.473 206.292 460.765 460.765 460.765 254.476 0 460.765-206.292 460.765-460.765 0-254.476-206.29-460.765-460.765-460.765-254.473 0-460.765 206.29-460.765 460.765zM713.881 246.119c19.992 19.992 52.41 19.992 72.401 0l222.703-222.703c19.992-19.992 19.992-52.41 0-72.401s-52.41-19.992-72.401 0l-222.703 222.703c-19.992 19.992-19.992 52.41 0 72.401zM460.803 703.98c28.276 0 51.197-22.922 51.197-51.197v-307.177c0-28.276-22.921-51.197-51.197-51.197s-51.197 22.921-51.197 51.197v307.177c0 28.275 22.921 51.197 51.197 51.197zM256.020 499.197c0 28.276 22.922 51.197 51.197 51.197h307.177c28.276 0 51.197-22.921 51.197-51.197s-22.921-51.197-51.197-51.197h-307.177c-28.275 0-51.197 22.921-51.197 51.197z" />
<glyph unicode="&#xe646;" glyph-name="zoom-out" data-tags="icon-zoom-out" d="M460.803 857.569c-197.924 0-358.374-160.45-358.374-358.374s160.45-358.374 358.374-358.374c197.924 0 358.374 160.448 358.374 358.374s-160.448 358.374-358.374 358.374zM0.038 499.197c0 254.473 206.292 460.765 460.765 460.765 254.476 0 460.765-206.292 460.765-460.765 0-254.476-206.29-460.765-460.765-460.765-254.473 0-460.765 206.29-460.765 460.765zM713.881 246.119c19.992 19.992 52.41 19.992 72.401 0l222.703-222.703c19.992-19.992 19.992-52.41 0-72.401s-52.41-19.992-72.401 0l-222.703 222.703c-19.992 19.992-19.992 52.41 0 72.401zM256.020 499.197c0 28.276 22.922 51.197 51.197 51.197h307.177c28.276 0 51.197-22.921 51.197-51.197s-22.921-51.197-51.197-51.197h-307.177c-28.275 0-51.197 22.921-51.197 51.197z" />
<glyph unicode="&#xe647;" glyph-name="sign-out" data-tags="icon-sign-out" d="M153.626 857.569c-13.578 0-26.6-5.394-36.201-14.995s-14.995-22.623-14.995-36.201v-716.746c0-13.577 5.394-26.602 14.995-36.201s22.623-14.995 36.201-14.995h204.785c28.275 0 51.197-22.921 51.197-51.197s-22.922-51.197-51.197-51.197h-204.785c-40.735 0-79.8 16.183-108.604 44.986s-44.985 67.866-44.985 108.603v716.746c0 40.735 16.182 79.8 44.985 108.604s67.869 44.985 108.604 44.985h204.785c28.275 0 51.197-22.922 51.197-51.197s-22.922-51.197-51.197-51.197h-204.785zM680.584 740.182c19.992 19.993 52.41 19.993 72.401 0l255.98-255.982c19.992-19.992 19.992-52.41 0-72.401l-255.98-255.98c-19.992-19.992-52.41-19.992-72.401 0s-19.992 52.41 0 72.401l219.78 219.78-219.78 219.779c-19.992 19.994-19.992 52.408 0 72.403zM307.215 448c0 28.276 22.922 51.197 51.197 51.197h614.354c28.276 0 51.197-22.921 51.197-51.197s-22.921-51.197-51.197-51.197h-614.354c-28.275 0-51.197 22.921-51.197 51.197z" />
<glyph unicode="&#xe648;" glyph-name="sign-in" data-tags="icon-sign-in, uniE648" d="M614.392 908.765c0 28.275 22.921 51.197 51.197 51.197h204.785c40.732 0 79.8-16.182 108.603-44.985s44.986-67.869 44.986-108.604v-716.746c0-40.737-16.183-79.8-44.986-108.603s-67.866-44.986-108.603-44.986h-204.785c-28.276 0-51.197 22.921-51.197 51.197s22.921 51.197 51.197 51.197h204.785c13.577 0 26.602 5.396 36.201 14.995s14.995 22.623 14.995 36.201v716.746c0 13.578-5.396 26.6-14.995 36.201s-22.623 14.995-36.201 14.995h-204.785c-28.276 0-51.197 22.922-51.197 51.197zM373.407 740.182c19.994 19.993 52.41 19.993 72.403 0l255.98-255.982c19.992-19.992 19.992-52.41 0-72.401l-255.98-255.98c-19.992-19.992-52.408-19.992-72.403 0s-19.993 52.41 0 72.401l219.78 219.78-219.78 219.779c-19.993 19.994-19.993 52.408 0 72.403zM0.038 448c0 28.276 22.922 51.197 51.197 51.197h614.354c28.276 0 51.197-22.921 51.197-51.197s-22.921-51.197-51.197-51.197h-614.354c-28.275 0-51.197 22.921-51.197 51.197z" />
<glyph unicode="&#xe649;" glyph-name="menu-hamburger" data-tags="icon-menu-hamburger, uniE649" d="M0.038 448c0 28.276 22.922 51.197 51.197 51.197h921.531c28.276 0 51.197-22.921 51.197-51.197s-22.921-51.197-51.197-51.197h-921.531c-28.275 0-51.197 22.921-51.197 51.197zM0.038 755.177c0 28.275 22.922 51.197 51.197 51.197h921.531c28.276 0 51.197-22.922 51.197-51.197s-22.921-51.197-51.197-51.197h-921.531c-28.275 0-51.197 22.922-51.197 51.197zM0.038 140.823c0 28.276 22.922 51.197 51.197 51.197h921.531c28.276 0 51.197-22.921 51.197-51.197s-22.921-51.197-51.197-51.197h-921.531c-28.275 0-51.197 22.921-51.197 51.197z" />
<glyph unicode="&#xe64a;" glyph-name="more-horiz" data-tags="icon-more-horiz, uniE64A" d="M398.223 448c0 62.84 50.939 113.777 113.777 113.777s113.777-50.939 113.777-113.777c0-62.84-50.939-113.777-113.777-113.777s-113.777 50.939-113.777 113.777zM796.444 448c0 62.84 50.939 113.777 113.777 113.777s113.777-50.939 113.777-113.777c0-62.84-50.939-113.777-113.777-113.777s-113.777 50.939-113.777 113.777zM0 448c0 62.84 50.94 113.777 113.777 113.777s113.777-50.939 113.777-113.777c0-62.84-50.94-113.777-113.777-113.777s-113.777 50.939-113.777 113.777z" />
<glyph unicode="&#xe64b;" glyph-name="more-verti" data-tags="icon-more-verti, uniE64B" d="M398.23 448c0 62.836 50.935 113.77 113.77 113.77s113.77-50.935 113.77-113.77c0-62.836-50.935-113.77-113.77-113.77s-113.77 50.935-113.77 113.77zM398.23 846.198c0 62.833 50.935 113.77 113.77 113.77s113.77-50.937 113.77-113.77c0-62.833-50.935-113.77-113.77-113.77s-113.77 50.937-113.77 113.77zM398.23 49.802c0 62.836 50.935 113.77 113.77 113.77s113.77-50.935 113.77-113.77c0-62.836-50.935-113.77-113.77-113.77s-113.77 50.935-113.77 113.77z" />
<glyph unicode="&#xe64c;" glyph-name="admin-administration" data-tags="uniE64C" d="M991 363.667v0q-16 11-24.5 27.5t-8.5 34.5v2q0 18 8.5 34.5t24.5 26.5v1q20 13 28.5 35.5t1.5 45.5q-2 7-4.5 14t-5.5 14q-8 23-28.5 36.5t-44.5 12.5v0q-20 0-37 8t-28 23q0 1-0.5 1h-0.5q-11 15-14 33.5t3 35.5v0q9 23 2 45.5t-27 37.5q-6 5-12 9.5t-13 8.5q-20 13-45 12.5t-44-15.5v0q-15-11-33.5-14t-36.5 3q-1 0-2 0.5t-2 0.5q-18 5-31 18t-19 31v0q-7 23-26 37.5t-43 15.5h-34q-24-1-43-15.5t-26-37.5v0q-6-18-19-31t-31-18q-1 0-2-0.5t-2-0.5q-17-6-36-3t-33 14h-1q-19 15-44 15.5t-45-12.5q-7-4-13-8.5t-12-9.5q-20-15-27-37.5t2-45.5v0q6-17 3-35.5t-14-33.5h-0.5t-0.5-1q-11-15-28-23t-36-8q-25 1-45.5-12.5t-28.5-36.5q-3-7-5.5-14t-4.5-14q-7-23 1.5-45.5t28.5-35.5v-1q16-10 24.5-26.5t8.5-34.5v-2q0-18-8.5-34.5t-24.5-26.5v-1q-20-13-28.5-35.5t-1.5-45.5q2-7 4.5-14t5.5-14q8-23 28.5-36.5t45.5-12.5v0q19 0 36-8t28-23q0-1 0.5-1h0.5q11-15 14-33.5t-3-35.5v0q-9-23-2-45.5t27-37.5q6-5 12-9.5t13-8.5q20-13 45-12.5t44 15.5h1q14 11 33 14t36-3q1 0 2-0.5t2-0.5q18-5 31-18t19-31v0q7-23 26-37.5t43-15.5h34q24 1 43 15.5t26 37.5v0q6 18 19 31t31 18q1 1 2 1h2q17 6 36 3t33-14h1q19-15 44-15.5t45 12.5q7 4 13 8.5t12 9.5q20 15 27 37.5t-2 45.5v0q-6 17-3 35.5t14 33.5h0.5t0.5 1q11 15 28 23t36 8v0q25-1 45.5 12.5t28.5 36.5q3 7 5.5 14t4.5 14q7 23-1.5 45.5t-28.5 35.5v0zM512 179.667q-53 0-99.5 19.5t-81.5 53-55 78.5-20 96 20 96 55 78.5 81.5 53 99.5 19.5 99.5-19.5 81.5-53 55-78.5 20-96-20-96-55-78.5-81.5-53-99.5-19.5v0zM608 426.667q0-38-28-65.5t-68-27.5-68 27.5-28 65.5 28 65.5 68 27.5 68-27.5 28-65.5v0z" />
<glyph unicode="&#xe64d;" glyph-name="admin-development" data-tags="icon-admin-development" d="M810.667 362.667c-93.752 0-170.667-76.915-170.667-170.667s76.915-170.667 170.667-170.667c93.752 0 170.667 76.915 170.667 170.667s-76.915 170.667-170.667 170.667zM810.667 277.333c47.637 0 85.333-37.696 85.333-85.333s-37.696-85.333-85.333-85.333c-47.637 0-85.333 37.696-85.333 85.333s37.696 85.333 85.333 85.333zM512 874.667c-93.753 0-170.667-76.916-170.667-170.667s76.914-170.667 170.667-170.667c93.753 0 170.667 76.916 170.667 170.667s-76.914 170.667-170.667 170.667zM512 789.333c47.636 0 85.333-37.699 85.333-85.333s-37.697-85.333-85.333-85.333c-47.636 0-85.333 37.699-85.333 85.333s37.697 85.333 85.333 85.333zM213.333 362.667c-93.75 0-170.667-76.914-170.667-170.667s76.916-170.667 170.667-170.667c93.75 0 170.667 76.914 170.667 170.667s-76.916 170.667-170.667 170.667zM213.333 277.333c47.634 0 85.333-37.697 85.333-85.333s-37.699-85.333-85.333-85.333c-47.634 0-85.333 37.697-85.333 85.333s37.699 85.333 85.333 85.333zM448.583 636.167c-0.29 0.007-0.631 0.011-0.973 0.011-15.646 0-29.325-8.422-36.752-20.979l-0.109-0.198-169.833-291.417c-3.651-6.158-5.809-13.574-5.809-21.494 0-15.632 8.406-29.3 20.945-36.731l0.197-0.108c6.173-3.674 13.611-5.846 21.556-5.846 15.647 0 29.326 8.422 36.752 20.981l0.108 0.198 169.75 291.417c3.651 6.158 5.809 13.574 5.809 21.494 0 15.632-8.406 29.3-20.945 36.731l-0.198 0.108c-5.875 3.497-12.918 5.64-20.445 5.832l-0.055 0.001zM577.833 636.167c-0.401 0.014-0.872 0.021-1.346 0.021-7.951 0-15.395-2.175-21.768-5.963l0.197 0.108c-12.736-7.539-21.143-21.208-21.143-36.84 0-7.92 2.158-15.336 5.918-21.692l-0.108 0.198 169.833-291c7.539-12.736 21.208-21.143 36.84-21.143 7.92 0 15.336 2.158 21.692 5.918l-0.198-0.108c12.736 7.539 21.143 21.208 21.143 36.84 0 7.92-2.158 15.336-5.918 21.692l0.108-0.198-169.833 291c-7.291 12.354-20.331 20.637-35.343 21.165l-0.073 0.002z" />
</font>
</defs>
</svg>
