<?xml version="1.0" standalone="no"?>
<!DOCTYPE svg PUBLIC "-//W3C//DTD SVG 1.1//EN" "http://www.w3.org/Graphics/SVG/1.1/DTD/svg11.dtd" >
<svg xmlns="http://www.w3.org/2000/svg" xmlns:xlink="http://www.w3.org/1999/xlink" version="1.1">
<metadata>
Created by FontForge 20230101 at Tue Oct 14 00:11:29 2014
 By Unknown
Copyright (c) 2013 by Cultivated Mind. All rights reserved.
</metadata>
<defs>
<font id="LUELLABlackW04-Regular" horiz-adv-x="292" >
  <font-face 
    font-family="LUELLABlackW04-Regular"
    font-weight="400"
    font-stretch="normal"
    units-per-em="1000"
    panose-1="2 0 5 8 0 0 0 2 0 4"
    ascent="800"
    descent="-200"
    x-height="544"
    cap-height="754"
    bbox="-64 -299 806 1029"
    underline-thickness="50"
    underline-position="-175"
    unicode-range="U+000D-FB05"
  />
<missing-glyph horiz-adv-x="166" 
 />
    <glyph glyph-name="uniFB00" unicode="ff" horiz-adv-x="539" 
d="M127 518v-18q0 -46 1 -91.5t3 -90.5q2 -46 3.5 -91.5t1.5 -91.5v-17t-1 -18v-34v-12q1 -4 1 -13q0 -37 -38 -37q-26 0 -34 17q-6 16 -6 39v53q1 14 1 26.5v26.5q0 62 -3 124l-2 62t-1 62v52v26.5t-1 25.5q-11 -2 -24.5 -1t-23.5 9q-5 4 -6.5 10t-1.5 11q0 11 6 19
q4 6 14 9q7 1 18 3h19q1 17 1.5 33t1.5 33q3 33 15 63q2 7 5.5 13.5t8.5 14.5t10 15l10 14q12 13 26 21q13 9 30 9q23 0 40 -16q16 -15 27 -35q2 -4 3.5 -8t3.5 -9q1 -5 1.5 -9t2.5 -9q2 -8 3 -11q2 -8 2 -12q0 -10 -7 -19q-8 -8 -18 -8q-14 0 -22 11t-11 25q-2 7 -4 13
l-4 12q-3 11 -10 11q-4 0 -7 -4q-11 -9 -17 -30q-5 -17 -10 -41q-2 -11 -2.5 -21.5t-1.5 -21.5t-1 -19.5v-16.5l179 2q0 31 3 66q3 33 15 63q2 7 5.5 13.5t8.5 14.5q9 17 20 29q13 14 26 21q13 9 29 9q24 0 40 -16q18 -15 27 -35q5 -7 7 -17q2 -5 2.5 -9t1.5 -9q2 -3 2.5 -6
t1.5 -5q1 -4 1 -12q0 -12 -7 -19q-6 -8 -18 -8q-13 0 -21 11q-7 10 -12 25q-2 7 -3.5 13t-3.5 12q-3 11 -11 11q-3 0 -7 -4q-11 -11 -17 -30q-6 -20 -9 -41q-2 -11 -3 -21.5t-1 -21.5q-1 -11 -1 -19.5v-16.5h59q13 0 26 -5q12 -6 12 -23q0 -12 -7 -19q-4 -3 -8.5 -5.5
t-10.5 -3.5q-9 -1 -18 -1.5t-19 -0.5q-9 -1 -18.5 -0.5t-17.5 0.5v-18q0 -46 1 -91.5t3 -90.5q2 -46 3 -91.5t1 -91.5v-35q0 -8 -0.5 -17t-0.5 -17q0 -3 0.5 -6t0.5 -6v-13q0 -37 -37 -37q-28 0 -34 17q-6 16 -6 39v53q0 14 0.5 26.5t0.5 26.5q0 62 -3 124q-3 61 -3 124
q-1 14 -0.5 26.5t0.5 25.5q0 14 -0.5 26.5t-0.5 25.5h-180z" />
    <glyph glyph-name="uniFB01" unicode="fi" horiz-adv-x="457" 
d="M344 619q-24 0 -37 21q-13 19 -13 41q0 19 11 38q12 18 35 18q22 0 36 -18q14 -19 14 -40q0 -20 -11 -40t-35 -20zM372 569q1 -2 1.5 -2.5t1.5 -2.5q11 -20 10 -46t-1 -48q0 -10 0.5 -24t0.5 -29v-29v-24q0 -42 -0.5 -82t-1.5 -82q-1 -41 -1 -81v-81q0 -22 -16 -29
q-14 -7 -33 -7q-42 0 -42 42q0 19 0.5 37.5t1.5 37.5t1.5 37.5t0.5 38.5v324q-20 0 -41.5 -0.5t-39.5 -0.5h-30.5h-15.5q-10 -1 -19 -0.5t-18 0.5v-18q0 -46 1.5 -91.5t3.5 -90.5q2 -46 3 -91.5t1 -91.5v-35q-1 -8 -1 -17v-17t1 -13v-12q0 -37 -37 -37q-12 0 -22 5
q-8 4 -12 12q-4 9 -5 18q0 5 -0.5 10.5t-0.5 10.5v106v62.5t-2 61.5l-3 123v53v26t-1 26q-11 2 -23.5 0t-23.5 7q-9 7 -9 22q0 12 6 18t14 9q5 2 9 2.5t9 1.5h19q1 17 1.5 33t1.5 33q3 33 15 63q3 7 6 13.5t8 14.5q4 8 9 14.5t10 13.5q12 13 25 22q15 9 30 9q24 0 40 -16
q16 -15 27 -35q4 -7 6 -17q1 -5 2 -9t2 -9l2 -6t2 -5q1 -4 1 -12q0 -12 -6 -19q-8 -8 -18 -8q-13 0 -21 11q-7 10 -12 25q-2 7 -3.5 13t-3.5 12q-5 11 -10 11q-3 0 -7 -4q-11 -11 -17 -30q-6 -20 -9 -41q-2 -11 -3 -21.5t-2 -21.5q0 -11 -0.5 -19.5t-0.5 -16.5h215
q8 0 13.5 -1t10.5 -6z" />
    <glyph glyph-name="uniFB02" unicode="fl" horiz-adv-x="440" 
d="M367 161q1 -31 1.5 -61.5t0.5 -61.5q0 -23 -8 -31q-8 -6 -31 -6q-15 0 -28 6q-14 6 -14 22v91q0 21 0.5 42t1.5 42q1 20 1 41v43v161v55q0 32 -0.5 86t-0.5 141q-18 1 -39 2.5t-41 -1t-36.5 -10.5t-23.5 -25q-4 -9 -5.5 -19.5t-3.5 -21.5t-3 -21.5t-2 -21.5t-1 -20v-17
h59q13 0 26 -5q12 -6 12 -23q0 -10 -8 -18t-18 -9q-9 -1 -18 -1.5t-18 -0.5q-10 -1 -19 -0.5t-17 0.5l-1 -19q-2 -46 0.5 -91.5t4.5 -90.5q2 -46 3 -91.5t1 -91.5v-35q-1 -8 -1 -17v-17t1 -13v-12q0 -37 -37 -37q-27 0 -33 17q-7 15 -7 39v27t1 26v53q0 32 -0.5 62.5
t-1.5 61.5q-2 31 -3 62t-1 62v105h-4q-6 0 -10 -1q-2 0 -4.5 -0.5t-5.5 -0.5q-13 0 -23 8q-9 7 -9 22q0 11 6 19q4 6 14 9q7 3 18 3h19q0 31 3 66q1 31 14 64q3 7 6 13.5t8 14.5t11.5 18t14.5 15q14 8 26 13.5t27 7.5q5 1 10.5 2t10.5 2q17 3 35 2t36 -1h50h22.5t21.5 -5
q11 -6 11 -28v-89.5t-1 -89.5t-1 -89.5v-89.5v-120v-61.5t1 -61.5z" />
    <glyph glyph-name="uniFB03" unicode="ffi" horiz-adv-x="707" 
d="M620 540v-48.5t1 -48.5q0 -20 0.5 -39.5t0.5 -39.5q0 -42 -0.5 -82t-1.5 -82q-2 -41 -2 -81v-81q0 -21 -16 -29q-14 -7 -33 -7q-23 0 -32 10q-10 9 -10 32v37.5t1 37.5t1.5 37.5t0.5 38.5v324q-18 0 -38 -0.5t-37.5 -0.5h-29.5h-15q-10 -1 -19 -0.5t-18 0.5v-18
q0 -46 1 -91.5t3 -90.5q2 -46 3.5 -91.5t1.5 -91.5v-17t-1 -18v-34v-13q1 -4 1 -12q0 -37 -38 -37q-28 0 -34 17q-6 16 -6 39v106q0 32 -0.5 62.5t-1.5 61.5q-2 31 -2 61.5t-1 61.5q0 14 -0.5 26.5t-0.5 26.5v52h-168v-18q0 -92 3 -182q2 -46 3.5 -91.5t1.5 -91.5v-17
t-1 -18v-34q0 -8 1 -13q1 -4 1 -12q0 -17 -10 -27t-28 -10q-28 0 -34 17q-7 15 -7 39v27t1 26v53q0 32 -0.5 62.5t-1.5 61.5q-2 31 -2.5 61.5t-1.5 61.5v53v26.5t-1 25.5h-3q-5 2 -10 0q-3 0 -6 -0.5t-5 -0.5q-13 0 -23 7t-10 23q0 11 6 19q6 6 15 9q7 1 18 3h19
q1 17 1.5 33t2.5 33q1 32 14 63q2 7 5.5 13.5t8.5 14.5q8 14 21 29q10 13 25 21q13 9 30 9q25 0 41 -16q16 -15 27 -35l4 -8t3 -9t2 -9t2 -9q2 -8 3 -11q2 -8 2 -12q0 -10 -7 -19q-8 -8 -18 -8q-14 0 -22 11q-4 5 -6.5 11.5t-4.5 13.5t-4 13l-4 12q-3 11 -10 11q-3 0 -7 -4
q-11 -11 -17 -30q-5 -17 -10 -41q-2 -11 -2.5 -21.5t-1.5 -21.5t-1 -19.5t-1 -16.5l168 2q1 17 1.5 33t1.5 33t5 32.5t10 30.5q3 7 6 13.5t8 14.5q8 14 21 29q10 13 25 21q13 9 30 9q24 0 40 -16q17 -14 28 -35q2 -4 3.5 -8t3.5 -9q1 -5 1.5 -9t2.5 -9q2 -8 3 -11
q2 -8 2 -12q0 -10 -7 -19q-8 -8 -18 -8q-14 0 -22 11q-7 10 -12 25q-2 7 -4 13l-4 12q-3 11 -9 11t-7 -4q-11 -11 -18 -30q-5 -17 -10 -41q-2 -11 -2.5 -21.5t-1.5 -21.5t-1 -19.5v-16.5h200q8 0 19 -1t17 -6t7.5 -13.5t1.5 -15.5zM580 619q-23 0 -37 20q-14 18 -14 42
q0 20 12 38t35 18q22 0 37 -17q14 -19 14 -41q0 -21 -12 -40q-12 -20 -35 -20z" />
    <glyph glyph-name="uniFB04" unicode="ffl" horiz-adv-x="666" 
d="M599 162q1 -31 1.5 -61.5t0.5 -62.5q0 -25 -9 -31q-8 -6 -31 -6q-15 0 -28 6q-14 6 -14 23v91v42t1 42t1 42v43v163q2 22 3 62q1 65 0 223q-13 1 -31 2t-36 -1.5t-34 -10.5t-24 -24q-5 -9 -8.5 -23t-5.5 -25t-3 -21.5t-1 -21.5q-1 -11 -1.5 -20t-0.5 -17h61q13 0 26 -5
q12 -6 12 -23q0 -11 -8 -19q-10 -7 -19 -8t-18 -1.5t-18 -0.5q-10 -1 -19 -0.5t-18 0.5v-19q0 -46 0.5 -91.5t2.5 -90.5q2 -46 3.5 -91.5t1.5 -91.5v-17t-1 -18v-34v-13q1 -4 1 -12q0 -37 -37 -37q-27 0 -35 17q-6 16 -6 39v53q1 14 1 26.5v26.5q0 62 -3 124l-2 62t-1 62v53
q0 14 -0.5 26.5t-0.5 25.5h-170v-19q0 -46 1.5 -91.5t3.5 -90.5q2 -46 3 -91.5t1 -91.5v-35q-1 -8 -1 -17v-17t1 -13v-12q0 -37 -38 -37q-28 0 -34 17q-6 16 -6 39v106q0 32 -0.5 62.5t-1.5 61.5q-2 31 -3 62t-1 62v105h-4q-7 0 -10 -1q-3 0 -5.5 -0.5t-5.5 -0.5
q-13 0 -23 8q-9 7 -9 22q0 11 6 19q6 6 15 9q7 3 18 3h19q0 31 3 66q1 17 5 32.5t10 31.5q3 7 6 13.5t8 14.5q8 13 21 28q10 13 25 21q13 9 30 9q23 0 40 -15q16 -15 27 -35q2 -5 4 -9t3 -9t2 -9t2 -9q2 -8 3 -11q2 -8 2 -12q0 -12 -7 -19q-8 -8 -18 -8q-15 0 -22 12
q-4 5 -6.5 11.5t-4.5 13.5t-3.5 13t-3.5 12q-5 11 -11 11q-2 0 -3 -1t-2 -1.5t-2 -1.5q-11 -11 -17 -30q-6 -20 -9 -41q-2 -11 -3 -21.5t-2 -21.5t-1 -20v-17l169 2q0 17 1 33t2 33q3 32 15 64q2 7 5.5 13.5t8.5 14.5t10 14.5t10 13.5q9 10 16 14q13 6 23.5 11t24.5 7
t27.5 3t27.5 2t27 0t26 -1h22t22 -5q15 -6 21 -17t8 -24t1 -27t-1 -27q-1 -28 -1 -56v-57q-1 -45 -1 -89.5v-90.5v-121v-61.5t1 -62.5z" />
    <glyph glyph-name=".notdef" horiz-adv-x="166" 
 />
    <glyph glyph-name="glyph1" horiz-adv-x="0" 
 />
    <glyph glyph-name="uni000D" unicode="&#xd;" horiz-adv-x="166" 
 />
    <glyph glyph-name="space" unicode=" " horiz-adv-x="166" 
 />
    <glyph glyph-name="exclam" unicode="!" horiz-adv-x="151" 
d="M4 657l-1 1q-1 18 -1.5 33.5t-0.5 29.5q0 17 12 28.5t27 11.5q14 0 24 -9.5t11 -25.5q2 -41 2 -81t1 -82q0 -6 -0.5 -12t-0.5 -12v-29q1 -11 1 -23v-23q-1 -23 -1 -46t-2 -46q-1 -15 -1.5 -30.5t-0.5 -30.5q0 -10 -0.5 -20t-1.5 -21v-23v-28t-1 -23q0 -11 -1 -16
q-4 -11 -12 -14.5t-16 -3.5q-6 0 -14 2q-9 3 -14.5 11.5t-4.5 20.5v60q-1 13 -1.5 26t-0.5 27q-2 38 -3 76.5t-2 76.5q0 49 1 97.5t2 97.5zM37 1h-2q-7 -1 -13.5 3.5t-11.5 10.5q-13 16 -13 41q0 28 13 40.5t28 12t28 -14t14 -35.5q1 -23 -11.5 -40t-31.5 -18z" />
    <glyph glyph-name="quotedbl" unicode="&#x22;" horiz-adv-x="195" 
d="M136 669v-38v-56q2 -14 -5 -24.5t-21 -10.5q-17 0 -21.5 12t-5.5 18v3v58q0 16 0.5 27.5t-0.5 24.5v4v36q0 14 7.5 21t15.5 8h3q12 0 18.5 -7.5t7.5 -15.5q1 -5 1.5 -9.5t0.5 -9.5zM53 669q0 -10 -0.5 -19.5t-0.5 -18.5v-43l1 -13v-8t-2 -8q-6 -19 -25 -19q-5 0 -15 5.5
t-11 26.5q-2 11 0 22v14q-1 6 -0.5 11.5t0.5 12.5q1 11 0.5 20t-0.5 17v18v2q-1 5 -0.5 10t0.5 10v14q0 13 7 20.5t16 8.5h2q12 0 18.5 -6.5t8.5 -14.5q2 -6 2 -11v-10q-1 -11 -1 -21v-20z" />
    <glyph glyph-name="numbersign" unicode="#" horiz-adv-x="569" 
d="M237 511h12q26 0 51 1t51 1q4 14 7 26.5t7 26.5q9 36 19 72t19 72q2 10 6.5 19.5t12.5 15.5q6 5 13.5 6.5t15.5 1.5q19 0 32 -10t13 -30q0 -9 -3 -18q-16 -45 -28 -90t-26 -91q8 1 16.5 1.5t16.5 0.5q14 0 26 -11t12 -25q0 -17 -10.5 -24.5t-24.5 -10t-29 -2t-25 0.5
q-6 -30 -14.5 -59t-16.5 -58q-3 -11 -5.5 -22t-4.5 -22q5 0 9 0.5t9 0.5q23 0 31 -7t8 -30q0 -15 -8 -22t-19 -9.5t-24 -2.5h-23l-24 -97q-2 -8 -5.5 -24t-7.5 -34t-8 -33t-7 -20q-6 -11 -20 -11q-5 0 -8.5 1t-7.5 3q-14 0 -23 10.5t-9 24.5q0 4 2.5 17t6 31t8 39t8.5 40
t7 34t5 21q-9 -5 -25.5 -7.5t-34.5 -4t-35 -2t-29 -0.5l-33 -131q-2 -8 -5 -18.5t-6.5 -20t-9.5 -18t-14 -11.5q-4 -2 -10 -2h-10q-17 0 -25 10t-8 26q0 6 5.5 29t12.5 50t13.5 52t9.5 36q-5 0 -9 -0.5t-9 -0.5h-22t-17.5 3t-12 10.5t-4.5 22.5q0 19 10 25.5t24 7.5t29 -0.5
t25 1.5q12 43 23.5 85.5t23.5 85.5q-7 0 -13 0.5t-13 0.5h-38q-19 0 -26 11.5t-7 28.5q0 15 10 21t24.5 7.5t29.5 0.5t25 -1h22q11 52 24.5 104t27.5 103q4 16 17 25.5t29 9.5q17 0 28 -10.5t11 -27.5q0 -10 -6.5 -38.5t-15.5 -61t-17.5 -62.5t-11.5 -43zM218 442
q-5 -19 -10 -37.5t-10 -38.5q-6 -23 -11.5 -47t-11.5 -47q29 1 59 2t60 4q10 42 20 82.5t20 81.5h-116z" />
    <glyph glyph-name="dollar" unicode="$" horiz-adv-x="324" 
d="M77 650q0 17 7 27.5t20 20.5q1 -43 1.5 -86t2.5 -86q-31 60 -31 124zM161 64q-5 108 -6 216l3 -6q15 -33 17.5 -67t2.5 -71q0 -19 -4 -37t-13 -35zM165 0q4 -6 4.5 -13.5t0.5 -15.5q0 -11 -4 -21.5t-17 -10.5t-19.5 5t-9.5 12.5t-3.5 17.5t-0.5 19q-19 2 -32.5 11.5
t-24.5 24.5q-7 10 -16.5 27t-18 35.5t-14.5 36.5t-6 30q0 11 7 21t19 10q15 0 25 -19.5t19 -43.5t18 -46t22 -27q-1 26 -1 52t-1 52q-1 47 -2.5 93.5t-1.5 93.5q-14 24 -31 57.5t-33 70.5t-26.5 72.5t-10.5 62.5q0 21 5.5 44t17 43.5t27.5 36.5t37 22h3v18q0 11 4.5 21.5
t18.5 10.5q10 0 16 -5.5t9 -14t4 -17.5t1 -16q24 -9 39.5 -27t25 -41t13.5 -48t4 -47q0 -14 -4.5 -29.5t-22.5 -15.5q-14 0 -21.5 10t-7.5 23q0 5 0.5 8.5t0.5 7.5q0 10 -1.5 22.5t-4.5 25t-8 23.5t-12 19l6 -243q14 -30 31 -63.5t31.5 -68.5t24 -70.5t9.5 -69.5
q0 -20 -3 -43t-10.5 -44.5t-21 -39.5t-33.5 -28q-2 -2 -10 -5.5t-10 -5.5z" />
    <glyph glyph-name="percent" unicode="%" horiz-adv-x="538" 
d="M158 477q-11 -24 -25.5 -35t-38.5 -11q-7 0 -11 1q-20 2 -35.5 12.5t-26.5 33.5q-13 25 -18 54t-3 62q3 89 37 142q27 41 64 41q6 0 16 -2q12 -3 20.5 -11t14.5 -17.5t9.5 -19t5.5 -16.5q8 -28 11.5 -58.5t2.5 -59.5q0 -29 -5.5 -59t-17.5 -57zM367 717l-47 -165
q-11 -36 -23 -72q-5 -14 -9 -27.5t-8 -27.5q-4 -13 -7.5 -26t-7.5 -26t-7 -25.5t-8 -25.5q-3 -13 -7 -25.5t-8 -24.5l-8 -24l-8 -24q-8 -30 -16 -60.5t-16 -59.5l-7 -25q-2 -7 -2.5 -14t-2.5 -14q-1 -5 -1.5 -8.5t-1.5 -8.5q-2 -14 -11 -23.5t-23 -8.5h-3h-11.5t-9.5 1
q-15 2 -24 14q-6 13 -1 29q2 5 3 9.5t3 9.5l15 54q7 24 13 44t11 38q3 13 7 25.5t7 24.5q4 12 7.5 24.5t7.5 25.5q4 14 7.5 27t7.5 26q5 14 8.5 27t7.5 27q8 27 15.5 53.5t15.5 53.5q7 25 14 49t14 49q6 20 12 39.5t11 39.5q2 8 4 16.5t5 16.5q1 5 2.5 10t3.5 10q6 11 14 18
l4 2q2 1 5 1.5t5 1.5q8 2 10 2q9 0 17 -3t14 -8q11 -9 10.5 -19.5t-2.5 -17.5q-1 -2 -1 -5zM429 50q-11 -25 -25.5 -36t-38.5 -11q-2 0 -4.5 0.5t-5.5 0.5h-2q-17 5 -33 14t-28 33q-24 47 -22 115q3 88 38 143q27 41 64 41q8 0 16 -3q33 -9 50 -63q8 -29 10.5 -61.5
t2.5 -55.5q0 -28 -5 -58.5t-17 -58.5zM119 629q-2 20 -5.5 33.5t-13.5 26.5q-7 8 -10 8h-1q1 0 -2 -3q-39 -42 -36 -112q0 -18 3 -34q4 -26 28 -32q2 -1 6 -1q8 0 15.5 4.5t10.5 15.5q4 16 6 34t0 46q0 4 -0.5 7.5t-0.5 6.5zM390 202q-2 17 -5 31.5t-14 28.5q-7 8 -10 8
q-1 0 -5 -3q-35 -43 -35 -113q1 -8 1.5 -16.5t2.5 -16.5q2 -18 10.5 -24.5t18.5 -8.5h4q8 0 15.5 4.5t10.5 15.5q5 17 7 35t0 44q0 4 -0.5 7.5t-0.5 7.5z" />
    <glyph glyph-name="ampersand" unicode="&#x26;" horiz-adv-x="371" 
d="M61 341q-8 21 -14 43.5t-13 44.5q-14 42 -23.5 92.5t-8.5 94.5q1 32 9 62.5t34 53.5q12 10 31.5 20.5t35.5 10.5q29 0 49.5 -15.5t33.5 -39t19 -51.5t6 -52q-1 -57 -12 -106.5t-43 -97.5q-5 -7 -9 -13.5t-7 -14.5q10 -28 21.5 -54t24.5 -53q8 -16 15.5 -31.5t15.5 -30.5
l8 20q3 7 5.5 16.5t7 18.5t10.5 15.5t16 6.5q14 0 21.5 -9.5t7.5 -21.5q0 -6 -5.5 -20t-12.5 -30t-14 -30.5t-10 -21.5l13 -19.5t18 -28.5t15.5 -28t6.5 -19q0 -7 -5 -15.5t-12.5 -16t-15.5 -13t-15 -5.5q-8 0 -16 6.5t-15 16t-12.5 19t-9.5 15.5q-8 -10 -20 -20
t-25.5 -18.5t-28.5 -13.5t-28 -5q-12 0 -23 3.5t-21 8.5q-9 5 -18 11t-16 14q-9 10 -15 23.5t-9 28.5t-4.5 30.5t-1.5 28.5q0 21 4.5 47t12.5 52t18.5 50t23.5 41zM121 706q-8 0 -14.5 -8.5t-10.5 -20.5t-6 -23.5t-2 -17.5q-1 -51 10.5 -98t28.5 -94q18 33 27.5 67t10.5 72
q0 12 -2 30.5t-6.5 36.5t-12 33.5t-19.5 21.5q-1 0 -1 0.5t-1 0.5h-2zM89 275q-5 -11 -10 -26.5t-9.5 -32t-7 -32t-2.5 -27.5q-1 -23 3 -48t26 -39q11 -8 22 -8q22 0 38 17t25 34q-21 41 -42 81t-43 81z" />
    <glyph glyph-name="quotesingle" unicode="'" horiz-adv-x="106" 
d="M42 571q0 -10 -4.5 -20.5t-16.5 -10.5q-8 0 -12 5t-6 12.5t-2.5 15t-0.5 13.5v137q0 11 4.5 20t17.5 9q7 0 11 -4.5t6 -10.5t3 -13t1 -12q0 -35 -0.5 -70.5t-0.5 -70.5z" />
    <glyph glyph-name="parenleft" unicode="(" horiz-adv-x="215" 
d="M72 359q0 -85 3 -174t18 -172q1 -8 2.5 -14.5t3.5 -13.5q3 -11 7.5 -20t12.5 -17l10 -10t4 -14q0 -14 -9.5 -22.5t-22.5 -8.5q-20 0 -34.5 15t-24.5 36.5t-16 44.5t-7 38q-8 74 -11.5 146.5t-3.5 147.5q0 41 2.5 81.5t5.5 81.5q1 14 2.5 39t5.5 54.5t10 59.5t16 55
t23.5 40.5t32.5 15.5q15 0 29.5 -9.5t14.5 -26.5q0 -15 -10.5 -20.5t-18.5 -16.5q-4 -5 -7 -13.5t-5 -14.5q-17 -69 -25 -143t-8 -145z" />
    <glyph glyph-name="parenright" unicode=")" horiz-adv-x="225" 
d="M50 -107q-13 0 -22.5 8.5t-9.5 22.5q0 8 3 13t9 10q13 10 19 30t9 36q14 83 17 172t3 174q0 70 -8 144.5t-25 143.5q-2 6 -4.5 14.5t-6.5 13.5t-9.5 8.5t-10 7.5t-7.5 8.5t-3 12.5q0 17 15 26.5t30 9.5q19 0 32.5 -15.5t23 -40.5t16 -55.5t10 -59.5t5.5 -54t3 -39
q3 -41 5 -81.5t2 -81.5q0 -75 -3 -147.5t-11 -146.5q-2 -15 -7.5 -38t-15.5 -44.5t-25 -36.5t-34 -15z" />
    <glyph glyph-name="asterisk" unicode="*" horiz-adv-x="335" 
d="M123 677q10 27 26 56q4 8 7.5 13.5t13.5 5.5q11 0 19 -7t8 -18q0 -4 -4.5 -15t-10.5 -24t-11.5 -24.5t-7.5 -16.5q16 2 32.5 4.5t32.5 2.5q21 0 26 -14.5t5 -31.5q0 -20 -19 -23q-17 -3 -35.5 -4.5t-35.5 -3.5q2 -5 7 -15t9.5 -21t8 -20.5t3.5 -14.5q0 -11 -8.5 -18
t-19.5 -7q-7 0 -12 4q-6 2 -10 12q-4 15 -11 30.5t-13 30.5q-7 -18 -13 -36t-14 -35q-3 -8 -10 -14t-16 -6t-16.5 7.5t-7.5 16.5q0 4 4 15t9.5 23.5t10.5 24t7 17.5q-8 -1 -16 -0.5t-16 -1.5q-5 -1 -8.5 -1.5t-7.5 -0.5q-14 0 -19.5 8.5t-5.5 20.5q0 20 4 30t27 10
q19 0 38 1.5t37 5.5q-2 -2 -7.5 -5.5t-8.5 -3.5q-5 0 -7 4t-7 14.5t-10 22.5t-8.5 22t-3.5 14q0 10 8 16.5t18 6.5q9 0 15 -6.5t10.5 -15.5t7.5 -18.5t6 -16.5z" />
    <glyph glyph-name="plus" unicode="+" horiz-adv-x="387" 
d="M275 256l-94 -2v-116q0 -7 1 -13.5t1 -14.5q0 -14 -6.5 -26t-22.5 -12q-11 0 -17 6t-8.5 14.5t-3 18t-0.5 17.5q0 12 1 24.5t1 24.5q0 20 -0.5 38.5t-0.5 38.5h-16q-22 -1 -44 0t-45 1q-9 0 -14 4.5t-7 11t-2 14v14.5q0 25 6.5 32t29.5 7q9 0 18 -0.5t18 -0.5
q14 0 27.5 0.5t27.5 0.5v58q0 18 -2 35.5t-2 35.5q0 14 6.5 27t23.5 13q12 0 18.5 -8t8.5 -19t2 -23v-19q0 -25 0.5 -49.5t0.5 -49.5h82q16 0 27 -0.5t17 -4.5t8.5 -13.5t2.5 -27.5q0 -28 -10.5 -32t-32.5 -5z" />
    <glyph glyph-name="comma" unicode="," horiz-adv-x="149" 
d="M33 -6q-14 1 -23 13t-9 26q0 18 14 35.5t33 17.5q11 0 18 -6t11.5 -14.5t6.5 -18.5t2 -19q0 -16 -4 -31.5t-9 -29.5l-6 -20l-6 -20q-1 -5 -1.5 -10.5t-2.5 -10.5q-2 -8 -7 -14t-14 -6t-16.5 9.5t-7.5 17.5q0 6 2.5 17t6 23t7 23t5.5 18z" />
    <glyph glyph-name="hyphen" unicode="-" horiz-adv-x="281" 
d="M85 186q-16 0 -31 0.5t-31 0.5q-23 0 -23 20q0 15 6.5 18.5t20.5 3.5q43 0 85.5 0.5t85.5 0.5q14 0 19 -5.5t5 -19.5q0 -8 -7 -12.5t-14 -4.5q-29 0 -58 -1t-58 -1z" />
    <glyph glyph-name="period" unicode="." horiz-adv-x="149" 
d="M37 -3q-19 0 -28.5 16t-9.5 30q0 20 11 32t32 12q17 0 28.5 -13.5t11.5 -29.5q0 -18 -13 -32.5t-32 -14.5z" />
    <glyph glyph-name="slash" unicode="/" horiz-adv-x="313" 
d="M47 -5q-10 0 -23 7.5t-13 18.5q0 4 3.5 18t8.5 30.5t9.5 32t6.5 21.5q12 45 23.5 88.5t23.5 87.5q11 35 21.5 70.5t20.5 70.5q7 25 12.5 49t12.5 48q2 7 6.5 24.5t10.5 40.5t13 48.5t13.5 47t11.5 36t8 16.5q8 5 15 5q10 0 22 -8t12 -19q0 -3 -5 -20t-11 -37.5t-12 -40
t-8 -26.5l-43 -160q-8 -26 -13 -51t-13 -51q-10 -31 -18.5 -62t-16.5 -63q-8 -29 -15.5 -57.5t-16.5 -57.5q-4 -11 -7.5 -20.5t-6.5 -20.5q-2 -7 -3.5 -18t-5 -21.5t-9 -18.5t-14.5 -8z" />
    <glyph glyph-name="zero" unicode="0" horiz-adv-x="318" 
d="M239 301q0 -5 -0.5 -10t-1.5 -10q-1 -14 -1.5 -27t-2.5 -27q-2 -21 -5.5 -53t-11.5 -64q-7 -32 -19.5 -61t-35.5 -41q-18 -8 -34 -8q-22 0 -38 12.5t-27.5 31t-19 39t-10.5 35.5q-17 69 -24 144.5t-7 147.5q0 19 0.5 37.5t1.5 36.5q1 17 1 34t2 34q2 24 8 59.5t19 68.5
t34.5 56.5t54.5 23.5h6q19 0 32.5 -8t23 -20.5t16 -28.5t11.5 -31q6 -21 9 -39q12 -54 16 -100.5t4 -101.5q0 -32 -0.5 -64.5t-0.5 -65.5zM181 498q0 7 -1 23t-3 36t-5 41.5t-7.5 39t-11 29t-15.5 11.5q-16 0 -22.5 -7.5t-11.5 -25.5q-6 -25 -10 -56.5t-6.5 -65t-3.5 -66
t-1 -59.5q0 -33 1 -69.5t5 -72.5t10.5 -70.5t18.5 -64.5q1 -4 3.5 -10.5t5.5 -13t7 -11t9 -4.5q4 0 9 14q2 7 4 16t4 19q5 22 8.5 42.5t5.5 28.5q5 19 5 37.5t1 37.5q1 23 2 47t1 47v63.5t-2 63.5z" />
    <glyph glyph-name="one" unicode="1" horiz-adv-x="229" 
d="M104 -3q-3 0 -15.5 0.5t-15.5 1.5q-19 7 -21 29q-2 29 -1.5 58.5t0.5 58.5q0 32 -0.5 63t-0.5 63q0 48 1 96.5t1 96.5v70.5t1 71.5q1 7 1 13.5v13.5l-3 -5q-2 -5 -7.5 -11.5t-15.5 -6.5q-14 0 -20 9.5t-6 20.5q0 5 1.5 10t3.5 9q4 8 8.5 15t8.5 14q8 13 15 25t14 25
q11 19 31 19q8 0 24.5 -3t22.5 -11q7 -9 8.5 -18.5t1.5 -18.5q0 -66 1 -131.5t1 -131.5q0 -26 -1.5 -52.5t-1.5 -52.5q0 -17 1 -32.5t1 -31.5q0 -42 0.5 -84t1.5 -84q1 -17 1.5 -34.5t0.5 -34.5q0 -26 -12.5 -33t-29.5 -7z" />
    <glyph glyph-name="two" unicode="2" horiz-adv-x="293" 
d="M198 457q-2 -8 -3.5 -16t-2.5 -17q-4 -28 -10 -55t-13 -54l-42 -165q-5 -20 -10.5 -38.5t-10.5 -38.5q-1 -3 -1 -6t-1 -6l55 -2h14q9 1 18 0q9 -2 18.5 -8t9.5 -21q0 -10 -6 -17.5t-14 -9.5q-1 0 -24 -0.5t-51.5 -1t-55.5 -1t-36 -0.5q-11 0 -21 6.5t-10 22.5q0 7 5.5 32
t13.5 54t15 55.5t9 35.5q23 90 42.5 179.5t36.5 180.5q2 9 4 23.5t4 30t3.5 30t1.5 23.5q0 2 0.5 5t0.5 5q-1 4 -2 4q-9 0 -17 -11t-15 -25.5t-11.5 -29.5t-6.5 -22q-3 -11 -10.5 -23t-21.5 -12q-13 0 -18.5 8t-5.5 19q0 5 2 11q0 2 0.5 4t0.5 4q3 19 15 45t29 49.5t38 39.5
t43 16q16 0 28 -8.5t20 -20.5q12 -17 14.5 -38t2.5 -38q0 -20 -2.5 -46t-6 -53t-7.5 -53.5t-8 -45.5z" />
    <glyph glyph-name="three" unicode="3" horiz-adv-x="305" 
d="M110 0q-19 0 -38.5 7t-35 19.5t-25 30.5t-9.5 41q0 7 3 16.5t17 9.5q13 0 19 -7t10 -17q2 -4 4 -12q5 -11 9.5 -18t16.5 -7q21 0 35 22.5t22 53t11.5 61.5t3.5 49q0 29 -3 56q-2 13 -4.5 22.5t-6.5 16t-10.5 11t-18.5 7.5q-2 1 -6 1q-5 0 -9 -0.5t-9 -0.5q-14 0 -25 11
t-11 26q0 13 9 24.5t17 21.5q6 6 9 12q4 6 8 12.5t7 13.5q7 16 14.5 37.5t13.5 44.5t9.5 45.5t3.5 39.5t-7 32t-22 15q-11 0 -18.5 -11.5t-12 -27.5t-6.5 -31.5t-3 -24.5q-1 -5 -1.5 -9t-2.5 -9q-5 -12 -18 -12q-10 0 -17.5 6t-10.5 15q0 21 5.5 49.5t17 54.5t30 44.5
t46.5 18.5q26 0 44.5 -9.5t30.5 -25t17.5 -36.5t5.5 -45q0 -20 -3.5 -48.5t-10 -59t-15 -58.5t-18.5 -47l2 -1q9 -4 20.5 -15.5t16.5 -19.5q7 -12 12.5 -29t8.5 -34.5t4.5 -35t1.5 -31.5q0 -18 -2 -45t-7 -56.5t-14.5 -58.5t-23.5 -52.5t-34 -38t-47 -14.5z" />
    <glyph glyph-name="four" unicode="4" horiz-adv-x="267" 
d="M186 265q-9 -3 -17 -3v-3q0 -51 1.5 -100.5t3.5 -99.5q0 -6 0.5 -11.5t0.5 -10.5q0 -9 -4.5 -23.5t-22.5 -14.5q-4 0 -8 0.5t-8 0.5q-17 0 -26.5 2t-14.5 8q-3 4 -4 8.5t-1 9.5v26v210h-38q-7 0 -15 1t-14.5 4.5t-11 11t-4.5 20.5v9q8 38 13.5 75t10.5 75q9 69 23 135
t26 134q4 21 13.5 25.5t27.5 4.5q7 0 14 -0.5t14 -3.5q15 -7 19 -28q2 -5 2.5 -14.5t0.5 -19.5q1 -10 1 -19v-14q0 -35 0.5 -70t0.5 -70q0 -32 -0.5 -63.5t-0.5 -63.5v-66q5 0 9 -0.5t9 -2.5q15 -8 15 -30t-15 -29zM76 430q-3 -26 -7.5 -51t-7.5 -51h24q0 45 0.5 89t1.5 89
q-3 -20 -6 -38.5t-5 -37.5z" />
    <glyph glyph-name="five" unicode="5" horiz-adv-x="294" 
d="M218 178q-6 -41 -18 -79q-5 -15 -14 -32.5t-22 -32t-29.5 -24.5t-35.5 -10q-10 0 -18.5 2.5t-16.5 6.5q-19 9 -30 26.5t-16.5 38.5t-7.5 43.5t-3 40.5q0 6 -0.5 11.5t-0.5 10.5q0 8 5 18.5t19 10.5q15 0 21 -9.5t8 -21.5q1 -11 1 -31.5t3 -40.5q7 -42 27 -42h4
q9 0 15.5 14t11 36t7 48.5t3.5 51.5t1.5 45.5t0.5 30.5q0 12 -1 24t-3 24q-2 15 -4.5 30.5t-7.5 29.5q-11 32 -31 32h-23q-9 0 -19 -0.5t-18 2.5q-23 7 -23 37v15.5t2 15.5q2 12 1.5 24.5t-0.5 24.5q2 45 2 90.5t3 90.5q0 10 7 17q7 9 21 10.5t24 1.5l3 1h111q13 0 25 -5
t12 -25q0 -14 -8 -24t-23 -10q-22 0 -43.5 0.5t-44.5 0.5q-3 -81 -3 -163v-26q5 0 11 0.5t11 -0.5q25 -5 44 -19t32 -34.5t20.5 -44t10.5 -46.5q2 -12 2.5 -24.5t2.5 -24.5q1 -12 2 -23t1 -23q0 -23 -3 -45.5t-8 -45.5z" />
    <glyph glyph-name="six" unicode="6" horiz-adv-x="298" 
d="M133 0q-9 0 -23.5 2t-23.5 7q-20 12 -34 35t-23.5 52.5t-14.5 63t-7.5 65.5t-3 60.5t-0.5 47.5q0 24 2 46.5t6 46.5q2 14 4 29t6 29q14 60 30 118.5t38 115.5q2 6 3.5 12.5t5.5 12.5q2 6 6 10q7 7 15 7h18t18 -2q10 -2 18 -9.5t8 -23.5q0 -12 -4 -22.5t-7 -21.5
q-4 -13 -7 -26t-7 -26q-6 -21 -12.5 -42.5t-12.5 -42.5q-9 -37 -16 -74t-13 -74q21 -1 40.5 -10t35.5 -21q16 -13 27 -32.5t17 -42t8.5 -45t2.5 -40.5q0 -23 -4 -57.5t-15 -67.5t-30.5 -56.5t-50.5 -23.5zM139 64l1 1q10 8 17.5 24.5t12 36.5t6.5 40t2 35q0 10 -1 25
t-3.5 29.5t-6 27.5t-8.5 19q-11 14 -25.5 22.5t-31.5 8.5q-6 0 -8 -1q-1 -2 -1 -5q-2 -17 -2 -35v-36q0 -38 4 -76t19 -73q5 -10 12 -23t12 -19h1v-1z" />
    <glyph glyph-name="seven" unicode="7" horiz-adv-x="340" 
d="M277 703q-1 -3 -3 -11q-11 -54 -31 -103.5t-33 -102.5q-8 -29 -16 -58.5t-15 -58.5l-9 -43q-7 -32 -16 -62t-15 -61q-6 -34 -13 -67l-14 -66q-2 -7 -2 -13.5t-1 -13.5q-2 -15 -7.5 -23.5t-14 -12.5t-18.5 -5t-20 -1q-18 0 -25.5 13t-7.5 26q0 22 4.5 42.5t9.5 41.5
q8 33 14 66t14 66q27 113 58.5 223t73.5 219h-12q-25 0 -52.5 -4t-52.5 -7q-9 -2 -18 -3t-18 -1q-13 0 -23.5 7.5t-10.5 24.5q0 10 6.5 17.5t14.5 9.5q9 2 18 2.5t17 1.5q42 7 82.5 11t82.5 4q7 0 16.5 -2.5t18 -8t14.5 -14t6 -19.5q0 -4 -0.5 -7t-1.5 -7z" />
    <glyph glyph-name="eight" unicode="8" horiz-adv-x="315" 
d="M233 635q-1 -6 -2 -11.5t-3 -11.5q-3 -18 -8 -38.5t-11 -41.5t-12 -41.5t-11 -38.5q-4 -14 -9.5 -27.5t-9.5 -27.5q11 -20 20 -47t15 -55.5t9 -56t3 -49.5v-37q0 -18 -4 -44.5t-13.5 -50.5t-25 -41.5t-39.5 -17.5h-8q-32 0 -55 13t-37.5 34.5t-21.5 49t-7 56.5
q0 48 13 90t30 85q10 24 18.5 48t17.5 48q-11 16 -21 39t-17.5 48t-12 49t-4.5 42q0 28 7.5 56t23 50.5t38.5 37t54 14.5q19 0 35 -8.5t27.5 -22t18 -31t6.5 -35.5q0 -8 -1 -14t-3 -12zM139 691l-2 2q-15 0 -25 -8.5t-16.5 -22t-9.5 -30.5t-3 -33q0 -32 6 -53q3 -12 7.5 -24
t11.5 -27l2 -5q7 19 13.5 42.5t12 47.5t9 46t3.5 38q0 22 -9 27zM137 314q-11 -30 -21 -60t-20 -61q-15 -45 -15 -95v-11t1 -11l4 -6t7 -7t8 -5t9 -1h11q15 0 22.5 14t11 32t4 37t0.5 30q0 35 -5.5 72.5t-16.5 71.5z" />
    <glyph glyph-name="nine" unicode="9" horiz-adv-x="315" 
d="M245 596q-3 -17 -6.5 -34t-5.5 -31q-14 -85 -26 -169.5t-28 -169.5q-3 -17 -5.5 -34.5t-4.5 -35.5q-3 -17 -6.5 -34.5t-5.5 -35.5q-1 -2 -1 -7q-1 -15 -8 -30t-30 -15q-8 0 -17.5 1.5t-17.5 5.5t-13 11.5t-5 19.5q0 14 4 27t6 26l9 62q10 70 22 139t23 138
q-17 -10 -33 -10q-27 0 -45 14t-29 34.5t-15.5 44.5t-4.5 44q0 34 7.5 70.5t25 65.5t45.5 48t70 19q11 0 23.5 -2t23.5 -8q29 -15 42.5 -33.5t13.5 -54.5q0 -14 -2.5 -31t-5.5 -35zM134 699q-7 0 -19 -7q-29 -16 -39.5 -41.5t-14.5 -57.5q-2 -11 -2.5 -21.5t-1.5 -21.5v-9
q0 -8 1 -16.5t4 -15.5q6 -14 14 -23.5t19 -9.5q8 0 15 9.5t15 24.5q7 14 12.5 28t7.5 21q9 24 16 53t7 55q0 32 -34 32z" />
    <glyph glyph-name="colon" unicode=":" horiz-adv-x="134" 
d="M37 376q-9 0 -16.5 5.5t-12 13.5t-7 17.5t-2.5 17.5q0 23 11 37.5t32 14.5q17 0 28.5 -16t11.5 -35q0 -21 -13 -38t-32 -17zM37 -3q-9 0 -16.5 5.5t-12 13.5t-7 17.5t-2.5 17.5q0 23 11 37.5t32 14.5q17 0 28.5 -16.5t11.5 -34.5q0 -21 -13 -38t-32 -17z" />
    <glyph glyph-name="semicolon" unicode=";" horiz-adv-x="165" 
d="M37 376q-9 0 -16.5 5.5t-12 13.5t-7 17.5t-2.5 17.5q0 23 11 37.5t32 14.5q18 0 29.5 -16t11.5 -35q0 -22 -13 -38.5t-33 -16.5zM33 2q-14 1 -23 14t-9 28q0 20 14.5 38t32.5 18q12 0 19 -6.5t11.5 -16.5t6 -20.5t1.5 -18.5q0 -15 -3.5 -31.5t-8.5 -32.5q-5 -17 -10 -33
t-7 -33l-9 2q5 -11 -2 -16.5t-13 -5.5q-11 0 -16 10t-5 18t3 22.5t8 28.5q2 9 5 18t5 17z" />
    <glyph glyph-name="less" unicode="&#x3c;" horiz-adv-x="394" 
d="M285 483q-4 -4 -8 -7l-8 -6q-9 -6 -15 -12q-30 -29 -62 -53t-66 -47q-18 -12 -35 -29q22 -34 50 -68q35 -42 72 -84.5t68 -87.5q7 -11 7 -22q0 -9 -6.5 -17t-15 -14.5t-18 -10t-15.5 -3.5q-17 0 -28 12q-7 7 -12.5 14.5t-12.5 15.5q-30 35 -59 71.5t-58 72.5l-16 20
t-17 19q-11 11 -18 24.5t-9 30.5v4v6q-1 9 3 21t13 19q35 26 70 51t70 51q19 14 37 30t36 30q5 4 11 9.5t13 11.5q8 7 16.5 12t14.5 5q16 0 21.5 -12t7.5 -22q-6 -12 -14 -20t-17 -15z" />
    <glyph glyph-name="equal" unicode="=" horiz-adv-x="309" 
d="M211 265q-1 -5 -5 -6t-7 -1q-29 0 -57 -1t-57 -1q-15 0 -30 0.5t-30 0.5q-25 0 -25 26q0 17 6 22t23 5q38 0 76 1t76 1q22 0 31.5 -4.5t9.5 -30.5q0 -1 -0.5 -2t-0.5 -3zM211 175q-1 -4 -5 -5.5t-7 -1.5q-29 0 -57 -1t-57 -1q-15 0 -30 1t-30 1q-25 0 -25 25q0 17 6 22.5
t23 5.5q38 0 76 1t76 1q22 0 31.5 -4.5t9.5 -30.5q0 -2 -0.5 -2.5t-0.5 -2.5z" />
    <glyph glyph-name="greater" unicode="&#x3e;" horiz-adv-x="394" 
d="M315 306v-3q-2 -17 -9.5 -31t-18.5 -25q-9 -9 -16.5 -19t-15.5 -20q-29 -36 -58 -72.5t-59 -71.5q-6 -8 -12 -15.5t-13 -14.5q-11 -12 -28 -12q-6 0 -15.5 3.5t-18 10t-15 14.5t-6.5 17q0 7 2.5 12t5.5 10q30 45 67 87.5t72 84.5q14 17 26.5 34t24.5 34q-20 18 -36 29
q-34 23 -66 47t-62 53q-3 3 -6.5 6t-7.5 6q-14 11 -27 21t-21 27q2 10 7.5 22t22.5 12q5 0 13.5 -5t16.5 -12q7 -6 13.5 -11.5t10.5 -9.5q18 -14 36 -30t37 -30q35 -26 70 -51t70 -51q10 -7 13.5 -19t2.5 -21v-6z" />
    <glyph glyph-name="question" unicode="?" horiz-adv-x="321" 
d="M141 422q0 -57 3 -114t3 -114q0 -11 -5.5 -18t-13.5 -10.5t-17.5 -5t-17.5 -1.5t-15 2.5t-12 10.5q-5 6 -5.5 11t-0.5 11q0 19 -0.5 38t-0.5 39q0 23 0.5 46.5t0.5 46.5q0 18 -2 35.5t-2 35.5v15.5t2 15.5q2 10 8 14.5t14 6.5q7 2 15 4t17 5q17 5 34 21.5t28 59.5
q6 18 6 36q0 22 -3 39t-20 28q-17 12 -37 12q-30 0 -41.5 -17t-16.5 -40q-3 -12 -4.5 -23.5t-3.5 -20.5q-5 -25 -21 -25q-11 0 -20 4.5t-9 21.5q0 25 5.5 50.5t13.5 48.5q9 23 31 41t46 23q8 2 16.5 2h16.5q67 0 98 -38t31 -104q0 -21 -3.5 -42t-11.5 -41q-9 -23 -24 -50
t-38 -41q-22 -12 -44 -19zM100 -3q-19 0 -32 15.5t-13 33.5q0 8 3 18t8.5 18.5t14 14t19.5 5.5q19 0 32 -14t13 -34q0 -8 -3 -18t-9 -18.5t-14.5 -14.5t-18.5 -6z" />
    <glyph glyph-name="at" unicode="@" horiz-adv-x="498" 
d="M289 312q2 5 4 9.5t3 6.5q15 38 22 86.5t7 90.5q0 33 -6.5 67.5t-20.5 63.5q-11 20 -18.5 30.5t-26.5 18.5q-9 5 -17 7.5t-17 2.5q-18 0 -36.5 -11t-30.5 -25q-7 -7 -13 -13.5t-11 -14.5q-19 -29 -31 -65.5t-19 -76t-10 -79t-3 -74.5q0 -29 3 -61t10 -63.5t18 -60.5
t28 -52q14 -19 30 -31.5t38 -12.5q13 0 28.5 8.5t27.5 13.5q10 5 19 5q14 0 19.5 -10t5.5 -19q0 -13 -13.5 -23t-31.5 -16.5t-35.5 -10t-25.5 -3.5q-38 0 -66.5 18.5t-48.5 48.5t-33 68t-20.5 76.5t-10.5 74.5t-3 62q0 29 3 56.5t7 56.5q6 51 18 103t39 98q8 14 19 25.5
t23 22.5q29 28 55 39t67 11q47 0 80.5 -23t54.5 -58.5t31 -77.5t10 -81q0 -29 -3 -69.5t-12 -82t-25 -78t-41 -56.5q-8 -7 -19.5 -8.5t-19.5 -1.5q-23 0 -36 9t-21 25q-9 -15 -22.5 -30t-33.5 -15q-11 0 -23 5q-24 9 -37.5 27.5t-21 40.5t-9.5 45.5t-2 43.5q0 24 3.5 59.5
t15 69t33.5 57.5t60 24q15 0 32 -5q21 -8 32 -21t16 -30q5 -16 5 -32.5t2 -33.5q1 -24 1.5 -47.5t0.5 -47.5v-17.5t1 -21.5q0 -7 2 -17zM210 497v19q0 7 -1 7q0 2 -5 2h-14q-19 0 -28.5 -20t-13.5 -46.5t-4 -52.5v-38q0 -21 2 -43.5t13 -38.5q2 -2 5 -7t6 -5q2 0 4 2.5
t4 4.5l3 3q24 34 27 78t3 84q0 13 -0.5 25.5t-0.5 25.5z" />
    <glyph glyph-name="A" unicode="A" horiz-adv-x="318" 
d="M241 2q-4 0 -9 1t-9 5q-6 5 -7.5 9.5l-3.5 10.5q-7 29 -10.5 60t-6.5 62q-4 37 -9 73t-10 73q-12 -1 -24.5 -1h-25.5q-4 -38 -7 -76.5t-6 -76.5q-2 -14 -2.5 -26.5t-1.5 -25.5t-2 -25.5t-1 -25.5v-12q0 -4 -1 -8.5t-5 -8.5q-3 -4 -10.5 -6t-15.5 -3h-22q-7 0 -13.5 0.5
t-13.5 2.5q-8 2 -15 7.5t-7 18.5q0 11 2 24.5t3 24.5q4 37 8 73.5t8 72.5q10 97 19 192.5t20 192.5q3 29 6.5 58.5t6.5 58.5q2 24 16 30q7 3 14 3t14 1h14q12 0 26.5 -4t17.5 -22q12 -65 19 -129.5t17 -130.5q5 -31 7 -61.5t7 -61.5l24 -198q3 -20 5.5 -40t5.5 -40
q2 -12 4.5 -24t2.5 -24q0 -14 -9.5 -19t-19.5 -5zM147 527q-4 -44 -7.5 -86.5t-7.5 -86.5h37q-5 44 -10.5 86.5t-11.5 86.5z" />
    <glyph glyph-name="B" unicode="B" horiz-adv-x="341" 
d="M168 18q-26 -12 -55 -15t-55 -3q-17 0 -27.5 6t-16 15.5t-7.5 22t-2 24.5q0 24 0.5 47.5t0.5 46.5q0 26 -0.5 52t-0.5 52q0 76 2.5 151.5t5.5 151.5q1 38 0 75t1 75q1 5 1 9t2 9t5 10.5t10 7.5q6 2 14 3t17 1.5t17 0.5h13q53 0 85.5 -19t51.5 -76q8 -23 12.5 -46t4.5 -47
q0 -39 -11.5 -84t-40.5 -75q-18 -18 -36 -33q16 -10 30.5 -21.5t26.5 -28.5q14 -20 26.5 -41t17.5 -49q2 -17 3.5 -33.5t1.5 -33.5q0 -50 -27.5 -92t-69.5 -63zM114 699q-2 -69 -5 -137.5t1 -137.5q11 7 21 15t18 17q20 23 29 53t9 62q0 22 -3.5 44.5t-12 41t-22.5 30.5
t-35 12zM110 334q0 -55 -0.5 -109.5t-2.5 -108.5v-18v-15t1 -15q5 2 10.5 4t10.5 4l17 8.5t14 10.5q25 21 32 40t7 53q0 44 -23 87q-11 22 -27 36t-39 23z" />
    <glyph glyph-name="C" unicode="C" horiz-adv-x="334" 
d="M234 590q-5 0 -7 1q-14 4 -17.5 14t-3.5 19q0 5 0.5 16.5t-0.5 23.5q-1 11 -3.5 19.5t-9.5 8.5q-13 0 -22 -11.5t-14 -23.5q-2 -5 -4.5 -9.5t-4.5 -9.5q-3 -7 -6.5 -13.5t-6.5 -13.5q-7 -17 -13 -42.5t-10.5 -53.5t-7 -55t-2.5 -46q0 -20 1 -50t3 -64.5t6 -70t11 -67.5
t16.5 -57t23.5 -37q4 -4 10 -4q4 0 6 2l3 3q7 5 11.5 15t7.5 18q5 12 11.5 21.5t17.5 9.5q16 0 22.5 -12.5t6.5 -23.5q0 -18 -7 -35.5t-19.5 -31.5t-29 -22.5t-34.5 -8.5q-8 0 -14.5 2t-14.5 4q-16 5 -31.5 11t-29.5 20q-17 17 -30 37t-19 45q-16 69 -21.5 130t-5.5 131
q0 38 4 74.5t9 73.5q4 24 7 47.5t11 46.5q7 21 18 45t27 45t37.5 34.5t49.5 13.5q47 0 73.5 -30t26.5 -78q0 -7 -1.5 -17.5t-5 -20t-10 -16.5t-15.5 -7z" />
    <glyph glyph-name="D" unicode="D" horiz-adv-x="323" 
d="M272 316q-4 -74 -30 -146q-14 -39 -33.5 -78.5t-56.5 -64.5q-8 -5 -16.5 -9t-16.5 -9q-10 -5 -21 -6t-22 -1q-2 0 -3.5 -0.5t-3.5 -0.5q-13 0 -29.5 6.5t-23.5 23.5q-5 14 -5 27t-1 27q-2 27 -3 54.5t-1 55.5q0 49 -2 97t-2 96q0 32 -0.5 63.5t-0.5 63.5q0 41 1 81.5
t3 81.5q1 13 1.5 26t3.5 25q4 16 12.5 21t18.5 7q4 2 6 2q4 2 10 2q19 0 35 -11.5t30 -23.5q26 -22 50 -47t41 -58q16 -33 28 -62t19 -59t10.5 -61.5t3.5 -68.5q0 -14 -0.5 -27t-1.5 -27zM149 602q-8 12 -17 22t-18 21q-10 11 -23 21q0 -38 2.5 -74.5t3.5 -73.5
q2 -92 4 -183.5t2 -183.5q0 -8 -0.5 -14.5t-0.5 -14.5q0 -10 0.5 -19.5t1.5 -20.5q16 6 29 21.5t23.5 35.5t18.5 41.5t14 39.5q8 26 13 53.5t6 55.5q1 11 1.5 22.5t0.5 22.5q0 63 -14.5 118.5t-46.5 109.5z" />
    <glyph glyph-name="E" unicode="E" 
d="M198 0h-171q-13 0 -20 8q-3 5 -4.5 16t-1.5 24v25v19q0 119 1.5 237t1.5 237q0 38 -1.5 76.5t-1.5 76.5q0 17 10.5 28.5t27.5 11.5q29 0 56.5 0.5t55.5 0.5q11 0 20.5 -0.5t20.5 -0.5q9 0 17 -3.5t8 -14.5q0 -4 0.5 -7.5t0.5 -7.5q0 -14 -7 -24q-9 -7 -17 -7
q-23 0 -46.5 -0.5t-46.5 -0.5q2 -70 1.5 -140t-0.5 -140h23q11 0 20.5 1t19.5 1q14 0 23 -8t9 -23t-11 -21.5t-26.5 -9t-31.5 -2t-26 0.5v-168v-120h91q7 0 13 -1t11 -5l5 -10q0 -5 0.5 -10.5t0.5 -10.5q0 -11 -6 -19.5t-19 -8.5z" />
    <glyph glyph-name="F" unicode="F" horiz-adv-x="313" 
d="M231 696q-24 -2 -47.5 -3t-46.5 -1q-6 0 -13 0.5t-14 0.5q-11 0 -16 -1q-1 -47 -1 -93.5v-94.5q0 -23 0.5 -46.5t0.5 -46.5h48q13 0 25.5 0.5t25.5 0.5q12 0 21 -7t9 -23q0 -24 -23 -29q-15 -2 -30.5 -2.5t-30.5 -0.5h-42h-3q0 -42 1 -84.5t2 -85.5v-43.5t1 -43.5
q0 -14 0.5 -28.5t0.5 -28.5q0 -8 -2.5 -18.5t-15.5 -14.5q-4 -2 -11 -2.5t-13 -0.5h-21q-17 0 -23 14t-7 23q-2 33 -2 66.5v66.5v173q0 87 1.5 172.5t0.5 172.5v19q0 14 6.5 23.5t16 15t20 7.5t18.5 2t15.5 -0.5t15.5 -0.5q14 0 27 -0.5t27 -0.5q11 0 21 0.5t21 2.5
q8 1 15.5 2.5t15.5 1.5q14 0 23.5 -9t9.5 -25q0 -28 -27 -30z" />
    <glyph glyph-name="G" unicode="G" horiz-adv-x="351" 
d="M140 0q-20 0 -38 6t-34 20q-27 26 -40.5 75.5t-18.5 104.5q-6 55 -6.5 108.5t-0.5 88.5q0 33 1 74t6.5 82.5t16.5 80t32 67.5q17 23 39.5 38t52.5 15q17 0 34 -5.5t32 -13.5q12 -7 21 -18.5t14 -25t7.5 -27.5t2.5 -26q0 -15 -6 -31.5t-27 -16.5q-11 0 -17.5 6.5
t-9.5 14.5t-3.5 16.5t-2.5 17.5q-2 17 -8 27.5t-23 10.5q-5 0 -9 -4q-18 -23 -29 -66t-17 -91t-8 -93.5t-2 -72.5q0 -22 1.5 -43.5t3.5 -43.5q4 -43 7 -88.5t24 -83.5q5 -10 17 -17.5t23 -7.5q9 0 14 14.5t7.5 33t3.5 36t1 24.5q0 31 -1.5 61t-5.5 60v14t-2 14
q-8 -2 -15.5 -3.5t-15.5 -3.5q-10 -2 -15 -2q-14 0 -26.5 11t-12.5 28t10 24t20 10t20.5 4t17.5 3q15 3 30 3h10q15 -2 23.5 -8t13 -15t5.5 -20t1 -21q0 -20 3 -38.5t4 -38.5q3 -44 3 -88q0 -33 -4 -65.5t-17.5 -58t-39 -41t-67.5 -15.5z" />
    <glyph glyph-name="H" unicode="H" horiz-adv-x="350" 
d="M206 433q-1 74 -2.5 147.5t-1.5 147.5q0 9 4.5 20t20.5 11q20 0 28.5 -13t8.5 -29q2 -54 3.5 -108t1.5 -108q0 -16 -0.5 -31t-0.5 -31q0 -76 1 -152t1 -152q0 -26 2 -52t2 -52q0 -8 -4.5 -18.5t-19.5 -10.5q-1 0 -7 -2q-2 0 -5 -0.5t-6 -0.5q-10 0 -16.5 6.5t-6.5 17.5
q0 15 0.5 30.5t0.5 30.5q0 61 -2 121t-2 121v41q-25 -1 -49.5 -1h-49.5v-6q-1 -62 0.5 -122.5t1.5 -122.5q0 -9 -0.5 -18t-0.5 -18q0 -6 0.5 -12.5t0.5 -12.5q0 -5 -0.5 -10t-0.5 -10q0 -22 -6.5 -28t-27.5 -6q-6 0 -12 -0.5t-12 -0.5q-12 0 -30 5l-9 9q-3 13 -3.5 25.5
t-0.5 22.5q0 55 -0.5 110t-0.5 110q0 29 0.5 58.5t0.5 59.5q0 20 -1.5 40t-1.5 40q0 55 -0.5 109.5t-0.5 110.5q0 5 0.5 10t0.5 10q0 20 6.5 26.5t24.5 8.5q8 2 17.5 2h18.5q24 0 32 -18q3 -8 3.5 -16.5t0.5 -16.5q0 -62 0.5 -123t0.5 -123v-27h31q17 0 33.5 0.5t33.5 0.5z
" />
    <glyph glyph-name="I" unicode="I" horiz-adv-x="358" 
d="M279 2q-5 -5 -10 -6t-10 -1q-25 0 -49 -0.5t-49 -0.5q-26 0 -53 2t-54 2q-5 0 -13.5 -0.5t-17.5 0.5q-12 1 -21.5 6.5t-9.5 16.5q0 23 13.5 28t29.5 5h57v13q1 237 -6 472q-2 40 -3 79l-2 78h-18t-20.5 0.5t-19 1t-12.5 1.5q-24 4 -24 30q0 14 8.5 19.5t18.5 5.5h104
q8 0 16.5 -1t16.5 -1q17 0 35 -1t35 -1q7 0 14 0.5t14 0.5q8 0 21 -4.5t13 -18.5q0 -23 -19 -30q-7 -3 -14 -3h-14h-48v-33q0 -43 2.5 -85.5t2.5 -85.5q1 -76 1.5 -151.5t0.5 -151.5v-134h14.5t15.5 -1h22t17 -2q23 -6 23 -30q0 -5 -1.5 -10t-6.5 -9z" />
    <glyph glyph-name="J" unicode="J" horiz-adv-x="363" 
d="M299 691q-13 0 -26 2t-27 3v-4q0 -21 1 -42t2 -43q2 -29 3 -58.5t1 -59.5q1 -71 2 -141t1 -142q0 -21 -1 -49t-7 -56t-18 -51.5t-34 -35.5q-12 -6 -26 -10t-28 -4q-16 0 -31 1.5t-32 7.5q-28 10 -43.5 36.5t-23 59.5t-9 67t-2.5 59q0 10 -0.5 20t-0.5 19q0 13 7 22.5
t21 9.5t19.5 -9.5t7.5 -17.5q2 -10 2.5 -25t1.5 -32t1.5 -35t2.5 -36q4 -37 15 -58.5t32 -21.5q20 0 29.5 11t13.5 32q5 27 5.5 55.5t0.5 56.5q0 23 1 46t1 46q0 97 -4 193.5t-6 193.5q-14 -1 -27 0t-27 2q-13 1 -19.5 10t-6.5 20q0 14 9 20.5t19 6.5q6 0 9 -1h75
q15 0 29.5 -1t29.5 -2q5 0 17.5 -0.5t26.5 -2.5q16 -3 28 -10.5t12 -19.5q0 -11 -5.5 -21.5t-21.5 -10.5z" />
    <glyph glyph-name="K" unicode="K" horiz-adv-x="358" 
d="M273 -1q-11 0 -17 6.5t-8 13.5q-3 8 -5 15.5t-4 15.5q-4 14 -8 26.5t-8 26.5q-16 66 -35 129t-42 126q-4 9 -7 18.5t-7 18.5q-7 -11 -13.5 -22.5t-12.5 -25.5q1 -34 0.5 -67.5t1.5 -68.5q1 -42 3 -83t2 -83q0 -3 -1 -5.5t-1 -4.5q0 -18 -9 -25t-23 -7q-8 0 -15 0.5
t-15 0.5q-5 0 -9 -0.5t-9 -0.5q-14 0 -20.5 8t-6.5 21q0 14 0.5 27.5t0.5 27.5q0 122 -1.5 243.5t-1.5 244.5q0 21 0.5 42.5t0.5 42.5q0 17 0.5 34.5t0.5 34.5q0 21 12 25t23 4q6 0 12.5 -0.5t12.5 -0.5h15h6.5t7.5 -2q8 -4 11 -11.5t3 -18.5q0 -63 -1 -125t-1 -125l30 63
q12 24 23 48t23 48q2 3 3 5.5t3 6.5q9 23 18 45.5t19 44.5q4 10 8 14q7 9 18 9q4 0 10 -1.5t12 -5t10 -9t4 -13.5q0 -6 -4 -18t-11 -28t-15.5 -35t-17.5 -38q-9 -20 -18.5 -39t-17.5 -36t-14 -30t-9 -20q-2 -5 -4.5 -10.5t-4.5 -11.5q19 -48 37.5 -95t33.5 -97
q13 -41 23.5 -81.5t22.5 -81.5q2 -5 5 -16t7 -23q3 -11 5.5 -22.5t2.5 -16.5q0 -16 -11.5 -24t-22.5 -8z" />
    <glyph glyph-name="L" unicode="L" horiz-adv-x="264" 
d="M192 0q-20 0 -38.5 0.5t-37.5 0.5q-5 0 -18.5 -0.5t-27.5 -0.5t-28 0.5t-21 2.5q-9 3 -12 11t-4 15t-1 13.5v11.5q0 62 -0.5 122.5t-0.5 122.5q0 96 1 190.5t1 190.5q0 13 -0.5 25.5t0.5 26.5q0 11 4 19.5t18 8.5q5 0 14 0.5t18 0.5q11 -1 20.5 -4t11.5 -10q2 -5 2.5 -32
t0.5 -58v-103q0 -25 -0.5 -49t-0.5 -49q0 -26 1 -52.5t1 -52.5q0 -30 -1 -60t-1 -60v-125q0 -13 0.5 -25t0.5 -25h76q8 0 15.5 1t14.5 -1q20 -6 20 -33q0 -14 -10 -18.5t-18 -4.5z" />
    <glyph glyph-name="M" unicode="M" horiz-adv-x="422" 
d="M111 333q0 -60 -3 -119t-3 -119v-40q0 -13 -1 -25t-3 -15q-6 -10 -18.5 -11.5t-22.5 -1.5q-8 0 -14.5 -1t-13.5 -1q-21 0 -26.5 14t-4.5 27q2 54 2.5 107.5t2.5 107.5t2.5 108.5t2.5 108.5q2 56 3 110.5t1 110.5v31q1 14 6.5 21t19.5 9q5 1 12.5 1h17.5h9.5t9.5 -1
q11 -2 18.5 -18t10.5 -36q3 -17 4.5 -33.5t2.5 -23.5l7 -47q9 -61 17 -121.5t19 -121.5q5 -32 11 -62.5t11 -62.5q10 51 19.5 102.5t15.5 103.5l10 76l10 76q5 32 8.5 62.5t8.5 62.5q1 4 0.5 7t0.5 6q1 4 2 7.5t4 8.5q5 8 13.5 10.5t13.5 2.5q11 0 17.5 -5.5t9.5 -14
t4 -17.5t1 -16q0 -69 6 -137.5t8 -137.5q1 -21 2.5 -42t2.5 -43q2 -40 2.5 -80t2.5 -81q2 -29 3 -58t3 -58q0 -8 1 -15.5t2 -15.5q2 -21 -4 -29t-23 -8q-10 0 -20 5t-11 25q-1 35 -3 70.5t-4 71.5q-3 66 -6.5 130.5t-6.5 130.5l-16 -108t-18 -108q-6 -30 -13 -60.5
t-12 -61.5q-2 -10 -9 -24.5t-25 -14.5q-17 0 -26.5 14t-11.5 25q-6 33 -10.5 66t-10.5 65q-5 28 -10.5 55.5t-10.5 55.5z" />
    <glyph glyph-name="N" unicode="N" horiz-adv-x="376" 
d="M286 585q0 -20 1 -38.5t1 -38.5q0 -95 -1.5 -188.5t-1.5 -188.5q0 -22 0.5 -43.5t0.5 -43.5q0 -15 -5.5 -30t-25.5 -15q-11 0 -18 6.5t-12 16.5q-4 7 -6 15l-4 16q-15 58 -31 116t-31 117q-14 53 -26 106t-23 107q-2 -66 -2 -131.5v-131.5v-100t1 -100v-12
q0 -12 -6.5 -17t-15.5 -7t-19.5 -1.5t-18.5 0.5q-21 0 -31 7t-10 29q0 50 1.5 99t1.5 98q0 69 0.5 136.5t2.5 136.5q2 54 4 109.5t2 109.5q0 24 11 29.5t31 5.5q8 0 17 -0.5t17 -2.5q11 -3 16 -12.5t7 -20.5q5 -27 12.5 -54t12.5 -54q21 -95 43 -189t46 -188q0 84 0.5 166.5
t0.5 166.5q0 37 -1.5 73.5t-1.5 73.5q0 16 8 28t25 12q9 0 15 -5t9 -12t4.5 -15.5t1.5 -15.5q0 -32 -1 -62.5t-1 -62.5z" />
    <glyph glyph-name="O" unicode="O" horiz-adv-x="353" 
d="M139 0q-26 0 -44 17t-31 37q-19 30 -31 66.5t-19 76t-9.5 79t-2.5 74.5q0 38 3 85t11 95t22 92.5t35 76.5q14 22 36 41.5t51 19.5q17 0 28.5 -6t23.5 -16q14 -12 22.5 -24.5t17.5 -27.5l8 -13q13 -23 20 -52t9.5 -60.5t2.5 -62.5v-57v-54.5t-1 -54.5t-7 -68.5t-15.5 -85
t-23.5 -81.5t-30 -59q-14 -17 -34 -27.5t-42 -10.5zM176 685h-2q-21 -11 -35 -49.5t-23 -85.5t-12.5 -91.5t-3.5 -67.5q0 -30 4 -74.5t12 -91.5t20 -89.5t29 -66.5q7 4 10.5 10.5t6.5 13.5q39 89 47.5 184t8.5 191q0 24 -1 51t-5.5 53.5t-13 51.5t-23.5 45q-3 5 -8.5 10.5
t-10.5 5.5z" />
    <glyph glyph-name="P" unicode="P" horiz-adv-x="325" 
d="M107 264q-3 -60 -3 -120q0 -26 1.5 -51t1.5 -51q0 -16 -4 -24.5t-11.5 -13t-18 -5.5t-23.5 -1q-20 0 -34.5 8t-14.5 31v115q0 27 1.5 54t1.5 53q0 72 0.5 144t0.5 144v128q0 11 -1 20.5t-1 19.5q0 25 11.5 34t34.5 9q28 0 45.5 -1t45.5 -7q19 -3 37 -13q57 -33 80.5 -87
t23.5 -118q0 -25 -4 -49t-10 -48q-11 -47 -35.5 -81.5t-63.5 -61.5q-14 -11 -29.5 -16.5t-31.5 -11.5zM100 696q2 -41 4 -81t2 -81q0 -35 -0.5 -69.5t-0.5 -69.5v-29t1 -29q13 6 27 15t26.5 20.5t22 25t14.5 27.5q9 26 13.5 54.5t4.5 56.5q0 36 -8 68.5t-36 57.5
q-15 14 -32 23.5t-38 10.5z" />
    <glyph glyph-name="Q" unicode="Q" horiz-adv-x="380" 
d="M329 333q-1 -26 -7 -62t-15 -73.5t-21.5 -72t-25.5 -57.5q2 -4 6 -13t8.5 -18.5t7.5 -18t3 -10.5q0 -13 -9 -18.5t-17 -5.5q-11 0 -18.5 6t-12.5 13q-3 4 -5.5 8t-4.5 9q-14 -9 -32 -14.5t-32 -5.5q-29 0 -49 17.5t-34 36.5q-22 29 -36 65t-22 75t-11 78.5t-3 74.5
q0 39 3 87t12 96.5t25 93t42 76.5q17 22 42 41t57 19q19 0 30.5 -5.5t25.5 -15.5q17 -11 28 -25t22 -30q19 -28 28.5 -61t13 -68.5t3 -70.5t-0.5 -67v-42t-1 -42zM266 558q-5 32 -14.5 60.5t-28.5 49.5q-5 5 -12 11t-13 6h-2q-18 -7 -31.5 -29t-23 -50t-15.5 -56t-9 -46
q-5 -27 -7.5 -54t-2.5 -55q0 -36 4 -76t11.5 -80t19.5 -77.5t28 -69.5q2 -4 4 -7.5t4 -7.5q4 -6 6 -6q4 0 9 5q-3 7 -7.5 18t-9.5 23q-6 16 -11 29.5t-5 15.5q0 14 9 20t18 6q7 0 13 -3q11 -4 17.5 -15t10.5 -22q25 71 34.5 138.5t9.5 145.5q0 29 -0.5 61.5t-5.5 64.5z" />
    <glyph glyph-name="R" unicode="R" horiz-adv-x="323" 
d="M101 264q0 -34 1 -67.5t1 -68.5q0 -23 1 -44.5t1 -44.5q0 -24 -8 -32.5t-31 -8.5q-8 0 -16 0.5t-16 0.5q-21 -1 -25.5 12.5t-4.5 30.5q0 57 -0.5 112.5t-0.5 112.5v124q0 42 0.5 84t1.5 84q1 40 0.5 80t4.5 79q3 19 11.5 27t26.5 10q10 1 19.5 1.5t19.5 0.5
q14 0 28.5 -0.5t28.5 -3.5q56 -13 78 -51t22 -92q0 -32 -6 -63.5t-16 -61.5q-14 -43 -41.5 -76t-56.5 -62q2 -6 7.5 -16.5t13.5 -24.5q10 -17 18.5 -33t11.5 -23q23 -50 42.5 -101t44.5 -99q2 -5 4.5 -10.5t2.5 -12.5q0 -10 -6.5 -20.5t-20.5 -10.5q-11 0 -19.5 8t-13.5 16
q-26 45 -44.5 94t-39.5 97q-6 14 -11.5 27t-12.5 26zM103 693h-1q-1 -37 -1.5 -73t-0.5 -73v-35v-48t1 -49q21 21 36 42t24.5 44t14.5 50t5 59q0 45 -17.5 64.5t-60.5 18.5z" />
    <glyph glyph-name="S" unicode="S" horiz-adv-x="299" 
d="M168 17q-12 -9 -27 -12.5t-29 -3.5q-20 0 -35.5 11t-27.5 27t-20 34.5t-14 33.5q-2 5 -3 10.5t-3 10.5q-4 9 -7 19t-3 20q0 12 7.5 22t21.5 10q10 0 16 -6.5t10 -15.5q2 -3 4 -9q2 -8 8 -25.5t14 -36.5q7 -17 13.5 -30t13.5 -13h7q14 0 22.5 8.5t13 21.5t6 28t1.5 26
q0 45 -8 82.5t-30 76.5q-14 25 -30 58t-30.5 68t-27 69.5t-19.5 63.5q-5 23 -5 44q0 39 15 74q5 12 14 26t20 25.5t25 19t29 7.5q33 0 56 -15.5t37 -39.5t20 -53t6 -56q0 -7 -1 -16t-4 -17t-9 -13.5t-15 -5.5q-14 0 -21.5 10t-7.5 22q0 4 0.5 8t0.5 8q0 12 -2 30t-7 35
t-15 29t-25 12q-17 0 -28 -14t-11 -31q0 -59 22 -109q20 -49 41.5 -97t44.5 -96q9 -18 17 -40.5t14 -45.5t9.5 -46t3.5 -44q0 -47 -13.5 -88.5t-54.5 -70.5z" />
    <glyph glyph-name="T" unicode="T" horiz-adv-x="343" 
d="M250 700h-25.5t-24.5 1q0 -53 2.5 -104.5t3.5 -103.5q1 -106 2.5 -211t1.5 -211q0 -10 0.5 -19.5t0.5 -19.5q0 -14 -7 -21.5t-17 -9.5q-8 -2 -16.5 -1.5t-16.5 0.5h-12.5t-13.5 2q-8 2 -14 8t-6 18q0 116 -1.5 231t-5.5 231q-1 24 -1.5 48.5t-0.5 48.5q-1 29 -2.5 57
t-2.5 57h-18t-20.5 0.5t-19 1t-11.5 1.5q-8 2 -15 7.5t-8 18.5v4q0 13 8 19.5t19 6.5h102q12 0 24.5 -1.5t24.5 -1.5q15 0 30 -0.5t30 -0.5q4 0 11.5 0.5t15.5 -0.5q11 -1 18.5 -6.5t7.5 -16.5q0 -23 -13.5 -28t-29.5 -5z" />
    <glyph glyph-name="U" unicode="U" horiz-adv-x="324" 
d="M256 309q0 -34 -1 -67.5t-4 -67.5q-2 -24 -7 -54.5t-17.5 -57.5t-33.5 -45.5t-54 -18.5q-20 0 -41 8t-35 26q-23 28 -32 60t-13 66q-8 54 -8.5 108t-2.5 108q-1 23 -1.5 46.5t-0.5 46.5q0 38 -0.5 75.5t-0.5 75.5q0 28 0.5 55.5t0.5 55.5q0 14 8 21.5t21 7.5h39
q19 0 25 -15q2 -6 2.5 -12.5t0.5 -12.5q0 -75 -1 -150t1 -150q1 -58 4.5 -116t6.5 -115q0 -9 2.5 -27.5t7.5 -37t13 -32t19 -13.5q7 0 11 4q10 9 16.5 34.5t9.5 56t4 59t1 43.5v456q0 8 3.5 17.5t18.5 9.5q5 0 10.5 0.5t10.5 -1.5q6 -2 11.5 -7t5.5 -15v-425z" />
    <glyph glyph-name="V" unicode="V" horiz-adv-x="340" 
d="M269 659q-4 -32 -7.5 -63t-6.5 -63q-3 -22 -5.5 -43.5t-5.5 -43.5q-4 -31 -6 -62.5t-5 -63.5q-4 -40 -8.5 -79t-9.5 -79q-2 -26 -5.5 -51t-5.5 -51q0 -15 -3 -30q-2 -11 -9 -20q-5 -6 -11.5 -8t-11.5 -2q-8 0 -16.5 0.5t-16.5 0.5q-5 1 -9 1t-8 2q-9 4 -15 15
q-3 5 -7.5 28t-10 57.5t-11.5 77.5t-12 87q-6 45 -12 89.5t-11 82t-9 65t-5 38.5q-4 33 -8.5 66.5t-9.5 66.5l-4 24t-2 24q0 13 10 20.5t24 9.5q11 2 21.5 2t21.5 1q13 1 18 -9t7 -19q5 -29 8.5 -59t7.5 -60q12 -81 23 -162.5t23 -162.5q6 60 12 119.5t13 119.5q4 32 7 64
t7 64q2 17 3.5 34t4.5 34q2 6 3.5 12.5t4.5 11.5q8 15 27 15q17 0 22 -12t5 -25q0 -16 -2 -32z" />
    <glyph glyph-name="W" unicode="W" horiz-adv-x="485" 
d="M312 0q-17 0 -25 10t-13 24q-8 27 -11.5 55t-7.5 56q-6 45 -9.5 91t-6.5 92q-3 -29 -6.5 -57.5t-7.5 -57.5q-5 -45 -11.5 -89.5t-17.5 -88.5q-5 -20 -15 -28.5t-31 -8.5h-21.5t-19.5 2.5t-16 9t-10 19.5q-3 10 -3.5 20t-1.5 20q-4 44 -10 87t-11 87q-8 65 -14.5 129
t-14.5 128q-3 35 -7.5 70t-8.5 70q-3 23 -6.5 47t-3.5 47q0 14 8.5 19.5t21.5 5.5h15t20.5 -0.5t19.5 -2t12 -4.5q5 -5 6.5 -14l2.5 -15q10 -53 13 -106t9 -107q8 -68 16.5 -135t16.5 -134q5 35 9 70.5t8 70.5q3 28 4.5 56t3.5 57q2 32 4.5 64t4.5 64q2 29 3 57t5 57l8 11
q6 2 12 3.5t12 1.5q17 0 24 -11.5t9 -26.5q13 -121 19 -241t20 -241q8 85 17.5 168.5t19.5 168.5q3 27 7.5 54t7.5 55q1 9 2 18.5t3 18.5q2 17 8.5 28.5t26.5 11.5q14 0 21 -10t7 -24q0 -23 -4 -45t-7 -44q-5 -38 -9.5 -77t-9.5 -77q-11 -87 -19 -172.5t-17 -172.5
q-1 -10 -2.5 -27.5t-4 -36t-6.5 -34.5t-10 -23q-11 -13 -28 -13z" />
    <glyph glyph-name="X" unicode="X" horiz-adv-x="376" 
d="M265 -3q-17 0 -26 13t-14 27q-2 5 -2.5 9.5t-2.5 9.5q-11 43 -26.5 85t-29.5 85q-14 -50 -28 -99t-29 -97q-4 -13 -11 -21.5t-22 -8.5q-14 0 -23 9t-9 23q0 4 4 19.5t10 37t13.5 46t14.5 47t12.5 40.5t7.5 26l13 45q1 2 2.5 8l3 12t3 11t1.5 7q0 4 -1 6
q-19 59 -38.5 117.5t-39.5 117.5q-3 10 -11 31.5t-16.5 45.5t-14.5 44t-6 27t3 13q2 4 11.5 8.5t20.5 8t21.5 5.5t15.5 2q12 0 20.5 -7.5t13.5 -18.5q23 -57 40 -116t35 -119q13 36 25 72.5t23 72.5q8 24 15.5 48t17.5 47q8 20 27 20q11 0 22 -8.5t11 -20.5q0 -9 -3 -15
q-4 -9 -13 -35t-20.5 -60.5t-24 -72.5t-23 -71t-17 -56.5t-6.5 -29.5q0 -3 5 -18.5t11 -34.5t11.5 -35.5t7.5 -20.5q3 -8 9.5 -28t15.5 -45t18 -53t17 -52.5t13 -42.5t5 -23q0 -17 -9 -22t-23 -8q-8 -2 -15.5 -4.5t-15.5 -2.5z" />
    <glyph glyph-name="Y" unicode="Y" horiz-adv-x="334" 
d="M103 387q-13 51 -27.5 100t-29.5 99q-3 8 -9.5 28.5t-13.5 42.5t-12.5 41t-5.5 24q0 14 10 24.5t24 10.5q12 0 19.5 -7t11.5 -18q14 -37 25 -75.5t22 -76.5q6 -19 11.5 -37t11.5 -36l68 211q5 14 10 26.5t25 12.5q4 0 11.5 -1.5t15.5 -4t15 -5.5t10 -5q14 -9 14 -27
q0 -6 -2 -12l-4 -12q-28 -87 -55.5 -174t-53.5 -175q-16 -54 -31.5 -107.5t-32.5 -107.5q-8 -26 -15.5 -51t-16.5 -51q-7 -20 -20.5 -23t-31.5 -3q-6 0 -9 -1h-2q-14 0 -24.5 9.5t-10.5 23.5q0 4 3 15.5t7.5 24.5t8 24.5t5.5 16.5q11 34 20.5 67.5t18.5 67.5q10 36 21 71
t19 70z" />
    <glyph glyph-name="Z" unicode="Z" horiz-adv-x="305" 
d="M233 662q-3 -14 -6.5 -27t-5.5 -24q-8 -32 -15 -64t-15 -64q-11 -42 -19 -86t-17 -87q-13 -60 -25.5 -120.5t-25.5 -120.5q14 0 27.5 0.5t27.5 0.5h19.5t19.5 -2q11 -3 19.5 -10.5t8.5 -24.5q0 -11 -4 -22t-20 -11q-32 0 -64.5 1t-65.5 0h-24h-14.5t-14.5 3q-15 7 -15 32
q0 10 1.5 25.5t3.5 32t5 32t5 25.5l124 542q-10 -1 -19 -1h-18h-58q-17 0 -25.5 13t-8.5 27q0 28 26 28q9 0 18 -0.5t18 -0.5q29 0 58 0.5t58 0.5q19 0 34 -8t15 -37q0 -24 -8 -53z" />
    <glyph glyph-name="bracketleft" unicode="[" horiz-adv-x="241" 
d="M151 733q-5 -1 -9 -1.5t-9 -0.5q-4 0 -7.5 0.5t-6.5 0.5h-25q1 -12 1 -24v-23q0 -36 1 -72t1 -72q0 -88 -2 -173.5t-2 -173.5q0 -40 0.5 -80t-0.5 -80q6 1 14.5 1.5t17.5 -0.5q15 -1 26.5 -7.5t11.5 -18.5q0 -11 -6.5 -21.5t-20.5 -10.5q-15 0 -30.5 1t-30.5 0
q-5 0 -10 -0.5t-10 -0.5h-13.5t-13.5 2q-8 2 -14 8.5t-8 17.5q-2 15 -1 30.5t-1 30.5q0 2 -0.5 3.5t-0.5 3.5q0 17 1 34t1 34q2 59 2.5 117t0.5 118q0 87 -2 172.5t-2 173.5v19t1 15q1 6 2 11.5t6 10.5q6 7 18.5 9t34.5 2q9 0 17.5 -0.5t16.5 -0.5q11 0 21.5 1t21.5 1
q4 0 10 -1.5t12 -4.5t10 -8.5t4 -14.5q0 -15 -10 -20.5t-18 -7.5z" />
    <glyph glyph-name="backslash" unicode="\" horiz-adv-x="293" 
d="M224 -6q-11 0 -18 11q-3 5 -5 12.5t-4 15.5t-3 15t-3 12q-2 11 -6 20.5t-7 20.5q-9 29 -16.5 57.5t-15.5 57.5q-8 32 -16.5 63t-18.5 63q-8 25 -13.5 50.5t-12.5 51.5l-44 160q-2 5 -7.5 24.5t-11.5 40.5q-7 22 -12 39.5t-5 19.5q0 7 4.5 12t10 8.5t11.5 5t9 1.5t7 -1
t8 -4q3 -3 7 -14.5t8 -25.5q4 -12 6.5 -23t4.5 -16q9 -34 18 -67t18 -67q7 -24 13 -48.5t13 -48.5q10 -35 20.5 -70.5t20.5 -71.5q13 -44 24 -87.5t24 -88.5q1 -2 5 -17.5t9 -32.5t9.5 -32.5t4.5 -19.5q0 -6 -4 -11t-10 -8t-12 -5t-10 -2z" />
    <glyph glyph-name="bracketright" unicode="]" horiz-adv-x="251" 
d="M179 66q-2 -15 -1.5 -30.5t-1.5 -30.5q-2 -11 -7.5 -17.5t-13.5 -8.5q-7 -2 -13.5 -2h-14.5q-5 0 -9.5 0.5t-9.5 0.5q-16 1 -31 0t-31 -1q-14 0 -20.5 10.5t-6.5 21.5q0 12 12 18.5t27 7.5q8 1 16.5 0.5t15.5 -1.5q-2 40 -1.5 80t0.5 80q0 88 -1.5 173.5t-1.5 173.5
q0 36 0.5 72t0.5 72q0 11 0.5 23t1.5 24h-26q-2 0 -5.5 -0.5t-7.5 -0.5q-5 0 -9.5 0.5t-9.5 1.5q-8 2 -18 7.5t-10 20.5q0 9 4 14.5t10 8.5t12 4.5t10 1.5q11 0 21.5 -1t21.5 -1q9 0 17.5 0.5t16.5 0.5q23 0 35.5 -2t18.5 -9q4 -5 5.5 -10.5t2.5 -11.5q1 -7 0.5 -15
t-0.5 -19q0 -88 -1.5 -173.5t-1.5 -172.5v-118t2 -117q1 -17 1.5 -34t0.5 -34v-7z" />
    <glyph glyph-name="asciicircum" unicode="^" horiz-adv-x="301" 
d="M210 406q-11 0 -16.5 7.5t-8.5 15.5q-4 9 -6.5 18t-4.5 19q-3 8 -5.5 16.5t-5.5 16.5q-5 14 -8.5 26.5t-7.5 26.5l-12 42q-12 -42 -26 -82t-28 -81q-3 -10 -9 -18.5t-19 -8.5q-19 0 -36 10t-17 36q0 5 3 17.5t8 24.5q4 14 7.5 25t4.5 13q14 47 27.5 94t32.5 92
q7 17 23.5 21.5t28.5 4.5q17 0 24 -12.5t9 -25.5q4 -29 12 -57q7 -26 15 -51t15 -51q2 -8 6.5 -22.5t9.5 -29.5t9 -29.5t4 -22.5q0 -11 -7 -23t-22 -12z" />
    <glyph glyph-name="underscore" unicode="_" horiz-adv-x="285" 
d="M305 -53q0 -3 -3 -4q-5 -8 -17 -8q-15 0 -46 -0.5t-66 -0.5t-66 -0.5t-46 -0.5q-16 0 -31 0.5t-31 0.5q-14 0 -18.5 6t-4.5 14q0 13 5 17t22 4q21 0 59.5 0.5t80 0.5t80 0.5t59.5 0.5q23 0 24 -16v-9q0 -4 -1 -5z" />
    <glyph glyph-name="grave" unicode="`" horiz-adv-x="175" 
d="M79 798q-8 0 -13.5 5t-9.5 11q-4 5 -6.5 9.5t-6.5 9.5q-3 5 -9.5 13.5t-13 18t-11.5 18.5t-5 15q0 10 6.5 17.5t17.5 7.5t20 -12q4 -5 13 -18t18.5 -27.5t16.5 -27t7 -16.5q0 -9 -7 -16.5t-17 -7.5z" />
    <glyph glyph-name="a" unicode="a" horiz-adv-x="355" 
d="M241 1h-10q-17 -5 -25.5 4t-12.5 21q-26 -25 -66 -25q-9 0 -18.5 1t-19.5 6q-20 12 -34.5 27t-23.5 38q-1 2 -1.5 3.5t-1.5 3.5q-4 8 -8 17t-6 18q-6 20 -8.5 41t-2.5 42q0 8 0.5 15.5t1.5 15.5q2 25 12 53.5t27.5 52.5t41.5 40t54 16q25 0 46 -12q0 15 -1 34.5t-4 37.5
t-9 30.5t-16 12.5q-26 0 -42 -28q-8 -12 -14 -28q-3 -8 -6 -15.5l-7 -17.5l-14 -7q-14 3 -22 10t-8 22q0 2 0.5 4.5t0.5 4.5q4 18 12 38.5t21 38t30.5 28.5t40.5 11q29 0 50 -12.5t35 -32t21 -44t9 -48.5q5 -75 7.5 -147.5t2.5 -147.5q0 -23 1 -46t1 -46q0 -17 -11 -23.5
t-23 -6.5zM188 307q-13 8 -27 14t-28 6q-11 0 -20.5 -6.5t-17.5 -16.5t-14 -23t-11 -25q-5 -13 -6.5 -27t-1.5 -28q0 -36 6 -66.5t31 -53.5q4 -3 11.5 -10t12.5 -7q14 0 26 9.5t21 23.5t14 30.5t5 31.5v143q0 4 -1 5z" />
    <glyph glyph-name="b" unicode="b" horiz-adv-x="281" 
d="M115 29q-4 -3 -6.5 -5.5l-5.5 -5.5t-11 -9q-13 -8 -31 -8q-12 0 -21.5 1t-17 5.5t-11.5 13.5t-4 26q0 116 -1.5 231t-1.5 231q0 22 -1 44t-1 44v175q0 11 4.5 23.5t22.5 12.5h23q17 0 22 -11t5 -22q0 -47 0.5 -93t0.5 -93q0 -10 0.5 -19t0.5 -18q10 -3 23 -10t26 -15.5
t24 -17.5t18 -15q16 -15 26 -34.5t15.5 -41.5t7.5 -44.5t2 -42.5q0 -42 -5 -83t-17 -80t-33 -74.5t-53 -64.5zM85 489q1 -5 1 -11v-11q2 -45 3 -90t1 -90v-46q0 -38 -0.5 -76.5t1.5 -76.5q17 20 31 41t23 47q12 38 19.5 76t7.5 77q0 61 -18 98t-69 62z" />
    <glyph glyph-name="c" unicode="c" horiz-adv-x="268" 
d="M119 0q-37 0 -59 23t-33 56t-15 69.5t-5 63.5q-3 42 -3 85q0 17 1.5 42.5t5.5 54.5t11.5 58t19.5 52.5t29 38t40 14.5q26 0 42.5 -10.5t25.5 -28t12 -39t3 -42.5q0 -14 -5.5 -26.5t-22.5 -12.5q-11 0 -16 6.5t-7 16t-1.5 19.5t0.5 18q0 10 -2 17.5t-8 15.5
q-14 -15 -23 -35.5t-13.5 -43.5t-6 -46t-1.5 -43q0 -48 1.5 -97t6.5 -97q0 -7 2 -18.5t6 -22.5t10.5 -19t15.5 -8q14 0 19.5 15.5t9 34.5t10 34.5t22.5 15.5q11 0 17 -8t6 -18q0 -8 -1 -17.5t-3 -16.5q-4 -20 -9.5 -38t-15.5 -32t-26 -22.5t-40 -8.5z" />
    <glyph glyph-name="d" unicode="d" horiz-adv-x="331" 
d="M232 3q-18 0 -27 11t-14 26q-11 -16 -25.5 -28t-34.5 -11h-8q-25 0 -44 13t-32 34.5t-21.5 48t-13.5 54.5t-7 54t-2 45q0 48 8.5 95t26.5 92q9 22 20.5 44t27 38t36 25t48.5 6q0 56 1.5 110.5t1.5 110.5q0 14 3.5 29t21.5 15q5 0 10.5 -0.5t10.5 -0.5q14 0 25.5 -4
t11.5 -22q0 -27 -0.5 -54t-0.5 -54v-122q0 -44 0.5 -87t0.5 -86q0 -34 -0.5 -67t-0.5 -66v-60t2 -60q2 -24 5 -47.5t3 -46.5q0 -14 -9.5 -24.5t-23.5 -10.5zM169 354q0 18 0.5 36.5t0.5 36.5v63q-3 0 -5.5 0.5t-5.5 0.5q-12 0 -21.5 -8.5t-16.5 -17.5q-16 -21 -27 -48
t-18.5 -57t-11 -60t-3.5 -55q0 -20 1.5 -43t6 -46t13.5 -43.5t24 -35.5q3 -3 8 -7.5t10 -4.5q6 0 10.5 5t8.5 10q8 10 13 17t8 14.5t6 16t6 20.5q-5 51 -6 103t-1 103z" />
    <glyph glyph-name="e" unicode="e" horiz-adv-x="287" 
d="M141 2h-17q-36 0 -59.5 23.5t-37.5 57t-19.5 70.5t-5.5 65q0 18 0.5 36t0.5 36q1 31 7.5 76t22.5 87t42.5 72t67.5 30q27 0 45 -12.5t29 -32t16 -43t5 -45.5q0 -26 -5.5 -39t-16 -19t-26.5 -7.5t-37 -2.5l-28 -2l-28 -2q-5 -26 -6.5 -53t-1.5 -53q0 -15 2 -44t8 -58.5
t18 -51.5t33 -22q14 0 20.5 10t12.5 21.5t13.5 21.5t22.5 10q12 0 18.5 -8.5t6.5 -19.5q0 -8 -3 -18.5t-7.5 -21t-10 -20t-10.5 -14.5q-16 -17 -33 -22t-39 -5zM149 496q-8 0 -15.5 -11t-13 -25.5t-9.5 -28.5t-5 -21q19 1 37.5 2t37.5 3q1 5 1 14q0 7 -1 18.5t-5 22.5
t-10.5 18.5t-16.5 7.5z" />
    <glyph glyph-name="f" unicode="f" horiz-adv-x="265" 
d="M130 517v-8q-1 -94 3.5 -188t4.5 -188q0 -17 -0.5 -34.5t-0.5 -34.5q0 -6 0.5 -12t0.5 -13q0 -18 -9.5 -27.5t-26.5 -9.5q-14 0 -21.5 5t-11.5 13t-4.5 18t-0.5 20v106.5t-2 105.5q-3 72 -3 143q-1 26 -1 52v52l-3 1q-5 0 -10 -1t-10 -1q-11 0 -21 6t-10 24
q0 14 8.5 20.5t17.5 8.5q5 2 9 2h9h11q0 32 2.5 66t14.5 63q4 11 12 26t19 28.5t25 23t30 9.5q24 0 40 -16.5t24 -34.5q5 -8 7 -17l4 -18q1 -6 2.5 -11.5t1.5 -11.5q0 -10 -5.5 -18.5t-18.5 -8.5q-9 0 -15 5.5t-10 14t-6.5 17.5t-4.5 16q-3 9 -6 14q-1 1 -2.5 3t-3.5 2
q-3 0 -5 -2l-2 -2q-11 -10 -17 -29.5t-9 -42t-4 -44t-1 -34.5h58q8 0 17.5 -2.5t14.5 -11.5q2 -3 3 -7t1 -7q0 -13 -8 -19.5t-17 -8.5q-16 -1 -31.5 -1.5t-31.5 -0.5h-7z" />
    <glyph glyph-name="g" unicode="g" horiz-adv-x="306" 
d="M218 -20q0 -2 -0.5 -5t-0.5 -6q0 -21 -5 -53t-16.5 -61.5t-32 -51t-51.5 -21.5q-14 0 -26 6.5t-21 14.5q-16 13 -25.5 34.5t-15 45t-7 47t-1.5 41.5q0 6 1 13t4 14t8 11.5t12 4.5q17 0 22 -13t5 -26q0 -8 0.5 -15.5t0.5 -15.5q0 -11 2 -27t6 -32t11 -28.5t18 -15.5
q5 0 9.5 4.5t7.5 10.5t5 13t3 11q2 18 3.5 36t3.5 35q1 11 1 21v21q-10 -5 -21 -5q-10 0 -18 3t-16 8q-30 19 -47 48t-24.5 63t-9 69t-1.5 65q0 17 1 38.5t3 44t5.5 43.5t9.5 37q7 18 11.5 37t13.5 36q5 10 12 21t16 20t20.5 15t25.5 6q19 0 37.5 -4t34.5 -21q14 -14 22 -31
t8 -39v-245q0 -42 0.5 -83t0.5 -83q0 -14 -1.5 -28t-3.5 -28zM138 275q0 52 0.5 104t-1.5 104h-6q-12 0 -20.5 -8t-15.5 -22q-24 -47 -32 -103.5t-8 -110.5q0 -23 2 -47l4 -48q3 -27 12.5 -51.5t31.5 -37.5q5 -4 10 -4q7 0 12 7.5t8 17.5t4.5 20.5t1.5 16.5q0 41 -1.5 81
t-1.5 81z" />
    <glyph glyph-name="h" unicode="h" horiz-adv-x="330" 
d="M258 168v-144q0 -8 -4.5 -17t-17.5 -9q-32 0 -38 10q-3 6 -3 17v24q0 77 1.5 153.5t1.5 153.5q0 11 -0.5 31.5t-2.5 41.5q-2 23 -6 39t-10 23q-5 5 -16 5q-20 0 -33 -19t-21 -42q-1 -2 -3 -8.5t-2 -8.5q-1 -73 -3 -145t-2 -144q0 -14 -1 -26.5t-1 -25.5t0.5 -25.5
t0.5 -25.5q0 -17 -9.5 -21.5t-21.5 -4.5q-8 0 -16 -1t-16 -1q-4 0 -10.5 1.5t-11.5 6.5t-6.5 16t-2.5 23q0 11 0.5 20.5t0.5 13.5q0 40 1.5 79.5t2.5 79.5q1 87 3 173t2 173q0 31 -1 62t-1 62q0 19 -0.5 38.5t1.5 38.5q2 21 20 30q6 3 17 4t17 1q21 0 29 -11.5t8 -28.5v-44
q0 -49 0.5 -98t0.5 -98q26 21 57 21q38 0 58.5 -21.5t28.5 -51.5q8 -28 9.5 -59t1.5 -60q0 -51 -1 -100.5t-1 -100.5z" />
    <glyph glyph-name="i" unicode="i" horiz-adv-x="168" 
d="M47 617q-11 0 -19 6t-13 15t-8 20t-3 20q0 18 9.5 37t29.5 19q21 0 32 -18.5t11 -38.5q0 -8 -2 -18.5t-6.5 -19.5t-12 -15.5t-18.5 -6.5zM79 42v-14.5t-5 -13.5q-7 -9 -18 -11.5t-18 -2.5q-18 0 -27 9.5t-9 32.5q0 38 1.5 75.5t1.5 75.5q0 72 0.5 142.5t0.5 141.5v29
q0 5 -0.5 9.5t0.5 8.5q0 31 33 31q5 0 9 -0.5t9 -1.5q15 -2 19.5 -10t4.5 -23q0 -40 0.5 -79.5t0.5 -79.5q0 -80 -1.5 -159.5t-1.5 -159.5z" />
    <glyph glyph-name="j" unicode="j" horiz-adv-x="211" 
d="M86 601q-11 0 -20 6t-15 15.5t-9.5 20.5t-3.5 21q0 20 11 37.5t33 17.5q23 0 35.5 -18.5t12.5 -38.5q0 -10 -2.5 -20.5t-8 -19.5t-13.5 -15t-20 -6zM21 -187q-13 0 -25 2.5t-22 12.5q-20 21 -29 51.5t-9 59.5q0 6 0.5 14t3 15t7.5 11.5t14 4.5q13 0 20 -9t7 -21
q0 -6 -0.5 -11.5t-0.5 -11.5q0 -9 1.5 -23.5t6.5 -22.5q2 -3 5.5 -6.5t4.5 -7.5q3 1 6 4l5 5q12 15 19 39t10 51t4 53t1 44q0 23 -0.5 45.5t-1.5 45.5q-2 29 -1.5 57t-0.5 56q-2 57 -3.5 114t-1.5 115q0 23 10 32.5t31 9.5q7 0 14 -1t14 -4q12 -6 14.5 -17.5t4.5 -22.5
q2 -20 3 -39.5t1 -39.5q0 -25 -1 -50t-1 -50q0 -11 1 -21.5t1 -21.5q0 -37 0.5 -73.5t0.5 -73.5q0 -19 -0.5 -38t-0.5 -38q-1 -30 -2.5 -57.5t-7 -53t-17 -50t-32.5 -48.5q-11 -12 -24 -21t-29 -9z" />
    <glyph glyph-name="k" unicode="k" horiz-adv-x="304" 
d="M148 313q20 -55 37 -110.5t34 -112.5q2 -6 6 -15.5t7.5 -19.5t6 -19t2.5 -15q0 -12 -8 -20t-21 -8q-17 0 -26 14.5t-14 28.5q-17 51 -31.5 102.5t-31.5 102.5l-16 -28v-55q0 -35 1.5 -69.5t1.5 -69.5q0 -14 -10 -19t-22 -5h-18t-19 2.5t-15.5 8.5t-6.5 17q0 17 -1.5 32.5
t-1.5 32.5q0 55 2 109.5t2 109.5q0 115 -2 228t-2 228q0 26 13.5 31t35.5 5q17 0 30 -7t13 -27v-309q0 -27 -0.5 -54.5t-1.5 -55.5q21 38 42.5 76t41.5 76q4 6 9.5 16t10.5 15q8 8 19 8q13 0 21.5 -10t8.5 -22q0 -5 -1 -9.5t-3 -9.5t-4 -8.5t-4 -8.5q-20 -39 -42 -78
t-43 -78z" />
    <glyph glyph-name="l" unicode="l" horiz-adv-x="137" 
d="M58 5q-4 -5 -11 -5q-3 -1 -12 -1q-10 0 -22 5.5t-12 23.5v93q0 45 1 89.5t1 89.5v147q0 83 -1 165t-1 164q0 25 12 33q5 4 11.5 4h12.5q14 0 21 -7.5t7 -27.5q0 -98 -0.5 -195.5t-0.5 -195.5v-80q0 -68 1 -135t1 -135q0 -10 -1.5 -18.5t-6.5 -13.5z" />
    <glyph glyph-name="m" unicode="m" horiz-adv-x="457" 
d="M391 116q0 -23 0.5 -46.5t-1.5 -46.5q-1 -28 -27 -28q-11 0 -20 5t-9 21q0 15 0.5 40t0.5 57v68.5v72.5q0 37 -0.5 71.5t-2 62.5t-3 47t-4.5 25q-7 17 -23 17q-29 0 -45 -22t-24 -54q-5 -16 -6.5 -32.5t-3.5 -32.5t-2 -30v-25q-2 -65 -3.5 -129t-3.5 -129q0 -8 -5 -20.5
t-21 -12.5q-10 0 -16 5t-9 12t-4 15.5t-1 14.5q0 73 2.5 145.5t2.5 144.5v33.5t-2 49.5q0 9 -1.5 20t-3.5 20.5t-6.5 15.5t-10.5 5q-14 -6 -23 -23.5t-13.5 -39t-6 -43.5t-1.5 -37q0 -76 1.5 -151.5t1.5 -151.5q0 -11 -4.5 -17.5t-11 -9.5t-13.5 -4t-12 -1q-11 0 -20.5 1
t-17.5 9q-4 4 -6 12.5t-3 18.5v28q0 109 1 215.5t1 214.5q0 13 1 18q0 9 5 15q7 8 34 8h13.5t13.5 -2q13 -3 16 -16q20 20 46 20q25 0 38.5 -20.5t21.5 -42.5q16 30 42 47.5t64 17.5q30 0 46 -16.5t24 -39.5q8 -22 9.5 -45t2.5 -45l2 -42t1 -42v-98t-1 -98z" />
    <glyph glyph-name="n" unicode="n" 
d="M218 157q0 -10 0.5 -19.5t0.5 -20.5v-62v-15v-8.5t-1 -8.5q-2 -10 -8 -18t-20 -8t-19.5 7.5t-7.5 17.5q-2 8 -1.5 15.5t0.5 15.5q0 66 1 131.5t1 131.5v38.5t-1 37.5v25q0 6 -1 16.5t-4 21t-8 18.5t-13 8q-16 0 -26.5 -15.5t-17 -36.5t-9 -42.5t-2.5 -33.5
q1 -75 3.5 -150t2.5 -150v-17.5t-3 -17.5q-8 -20 -35 -20q-22 0 -30 11t-9 32q-2 54 -2.5 106.5t-1.5 106.5q0 101 -3 202q-1 17 -1.5 34.5t-0.5 34.5q0 5 3 11l12 9q8 0 13 1q3 1 6.5 2t7.5 1q15 0 22.5 -9.5t9.5 -22.5q10 14 24 24.5t34 10.5q8 0 15.5 -3t13.5 -6
q22 -10 32 -30t15 -42q5 -23 5.5 -45.5t2.5 -40.5q3 -36 3 -72q0 -39 -1.5 -78t-1.5 -78z" />
    <glyph glyph-name="o" unicode="o" horiz-adv-x="295" 
d="M199 56q-10 -23 -26.5 -39.5t-44.5 -16.5q-27 0 -46.5 11t-33 29t-21 40.5t-11.5 45.5q-7 42 -10.5 83.5t-3.5 83.5q0 23 2.5 55.5t8.5 66.5t17 64.5t28 48.5q9 11 24.5 16t27.5 5q18 0 32 -6.5t25 -17t19.5 -23.5t15.5 -25q13 -24 21 -53t11.5 -59t4.5 -59.5t1 -54.5
q0 -51 -10.5 -100.5t-30.5 -94.5zM140 469q-2 2 -7.5 6.5t-7.5 4.5q-12 0 -19 -30.5t-10 -73.5q-3 -42 -3 -79.5v-48.5q0 -14 2 -36.5t6 -46t8.5 -44.5t10.5 -31q5 -8 8.5 -13t9.5 -8q8 2 16 20t14 42q7 25 10.5 47t5.5 30q2 14 2.5 26.5t0.5 26.5q0 26 -1 55t-5.5 57
t-14 53t-26.5 43z" />
    <glyph glyph-name="p" unicode="p" horiz-adv-x="274" 
d="M87 543q14 7 26 7q22 0 38.5 -18.5t28 -47.5t18.5 -65t11 -70.5t5.5 -63.5t1.5 -45q0 -14 -1.5 -38.5t-5.5 -52.5t-11 -57t-17.5 -52t-25 -38t-34.5 -15q-19 0 -35 10q0 -26 -0.5 -50.5t-0.5 -50.5q0 -32 1 -62.5t1 -62.5q0 -17 -7 -27.5t-25 -10.5l-5.5 0.5t-11.5 1
t-11 1t-6 0.5q-5 2 -7 4.5t-5 7.5q-2 4 -3 21.5t-1 38.5v40v25q0 163 0.5 324t0.5 324q0 14 6 20.5t13 8.5t13.5 1.5t7.5 0.5q4 -1 8.5 1t8.5 2q14 0 24 -12zM110 481q-14 0 -17 -16q-2 -8 -3 -30.5t-1.5 -48.5t-0.5 -50v-35q0 -39 -0.5 -78t-0.5 -77q0 -19 5.5 -43.5
t19.5 -38.5q5 -5 8 -5q5 0 8 6.5t5 10.5q17 38 22.5 80t5.5 83q0 27 -1 56.5t-4.5 59t-10.5 58t-18 52.5q-2 5 -6.5 10.5t-10.5 5.5z" />
    <glyph glyph-name="q" unicode="q" horiz-adv-x="344" 
d="M265 -126q0 -25 0.5 -49.5t0.5 -49.5q0 -17 -1.5 -27.5t-7 -16.5t-15.5 -8t-28 -2q-36 0 -36 37q0 33 1.5 66t1.5 66q0 29 -0.5 58t-1.5 58q-24 -18 -55 -18q-26 0 -45 14t-32.5 36.5t-22.5 50.5t-14 56.5t-7 55t-2 44.5q0 21 2 51.5t7.5 64t15 67.5t24 60.5t35 43.5
t48.5 17q19 0 41 -10l2 7q13 13 32 13q5 0 8.5 -0.5t8.5 -0.5q6 -1 13 -2t13 -3.5t10 -7.5t4 -14q0 -70 -0.5 -139.5t-0.5 -139.5q0 -66 1.5 -130.5t1.5 -130.5q0 -29 -1 -58.5t-1 -58.5zM140 487q-11 0 -19 -6t-14 -14q-15 -23 -24 -52t-14 -59.5t-6.5 -61t-1.5 -57.5
q0 -40 6 -75.5t23 -70.5q5 -10 13.5 -23t20.5 -13q5 0 9.5 2.5t8.5 5.5q24 16 29.5 43.5t5.5 53.5l1 74v43q0 39 -1 78.5t-3 78.5q-1 9 -2 18.5t-4.5 17t-10 12.5t-17.5 5z" />
    <glyph glyph-name="r" unicode="r" horiz-adv-x="260" 
d="M204 411q-15 0 -20.5 11t-7.5 24.5t-4 25t-12 11.5q-4 0 -8 -4q-25 -21 -38 -66.5t-18 -98.5t-5.5 -104.5t-0.5 -83.5q0 -22 -0.5 -43.5t-0.5 -43.5q0 -43 -42 -43q-20 0 -33 12t-13 32q0 41 2 81t2 81q0 57 -1 113.5t-1 113.5v53.5t5 52.5l9 9q8 2 20.5 6.5t20.5 4.5
q20 0 27 -16t7 -33q11 15 28 28t37 13q19 0 33.5 -10t24 -26t14 -34.5t4.5 -34.5q0 -14 -7.5 -22.5t-21.5 -8.5z" />
    <glyph glyph-name="s" unicode="s" horiz-adv-x="260" 
d="M164 11q-22 -14 -50 -14q-82 0 -99 83q-3 17 -3.5 32.5t-1.5 32.5q0 9 -1 18t-1 18q0 11 7.5 25.5t24.5 14.5q16 0 21.5 -11t7.5 -22q1 -6 1 -11.5v-10.5v-17v-27t4 -27q2 -11 8.5 -23t16.5 -12q9 0 15.5 9t10.5 22t5.5 26t1.5 21q0 23 -8 48.5t-23 41.5q-8 8 -17 15.5
t-17 15.5q-15 15 -27 29.5t-21 30.5t-14 35t-5 44q0 18 4.5 40.5t13.5 44t23 39.5t32 26q19 8 38 8q28 0 45 -16t26 -38.5t12 -48t3 -43.5q0 -3 -1 -9.5t-3 -14t-5.5 -14t-7.5 -8.5q-4 -3 -7.5 -3.5t-6.5 -0.5q-11 0 -19.5 7t-8.5 21q0 6 1 12.5t1 13.5q0 20 -3.5 38
t-14.5 32q-5 6 -10 6q-10 0 -15.5 -7t-8 -17t-3 -21t-0.5 -18q0 -27 7.5 -52t24.5 -44q11 -11 19.5 -20t16.5 -17q8 -9 14 -17t11 -17q11 -17 18 -39t12 -55q2 -8 2 -15.5v-15.5q0 -13 -2 -31t-7 -36t-14 -33.5t-23 -23.5z" />
    <glyph glyph-name="t" unicode="t" horiz-adv-x="261" 
d="M146 58q1 2 1.5 5.5t1.5 6.5q2 8 7.5 18t20.5 10q13 0 21.5 -10.5t8.5 -22.5q0 -5 -1.5 -9t-3.5 -9q-8 -25 -21 -37t-39 -12q-31 0 -49 19.5t-27.5 47.5t-12 59t-2.5 53t-1 43t-1 42q0 28 1 55.5t1 54.5t1 53.5t2 52.5q-5 -1 -15 -1q-12 0 -24.5 8.5t-12.5 25.5
q0 9 4 14.5t9.5 8.5t11.5 4t10 1t7.5 -0.5t8.5 -0.5h5q2 24 2.5 47.5t2.5 46.5v13t2 12q2 15 18 20t26 5q14 0 28 -7t14 -30q0 -13 -1.5 -26t-3.5 -26q-2 -10 -2.5 -26t-0.5 -27h22q5 0 9.5 0.5t9.5 0.5q13 0 27 -5.5t14 -25.5q0 -12 -8.5 -21t-19.5 -9q-8 0 -16 -0.5
t-16 -0.5h-11.5t-11.5 1q0 -16 1 -31.5t0 -31.5q-6 -92 -9 -183q0 -16 -1 -31t-1 -30q0 -8 0.5 -28.5t2.5 -41.5q1 -9 1.5 -17.5t2.5 -15.5q3 -10 7 -12z" />
    <glyph glyph-name="u" unicode="u" horiz-adv-x="335" 
d="M226 5q-20 0 -29.5 14.5t-12.5 32.5q-11 -21 -28.5 -35.5t-42.5 -14.5q-46 0 -68 40q-14 24 -22 58t-12.5 70.5t-6 72.5t-1.5 64q0 27 1 54l2 54q0 12 0.5 27.5t1.5 31.5t1.5 30.5t2.5 25.5t8 19.5t19 8.5q15 0 24.5 -11t9.5 -25q0 -13 -1 -25.5t-2 -26.5q-2 -44 -3 -87
t-1 -87q0 -19 0.5 -52.5t4.5 -68t12.5 -64.5t24.5 -42q1 0 1.5 -0.5t1.5 -0.5q15 0 23.5 27t13 61.5t6 67.5t1.5 45q1 33 3.5 66t2.5 66v96q0 6 -1 11.5t-1 11.5q0 16 10 25.5t25 9.5q7 0 13 -2t13 -3q21 -4 30.5 -12.5t9.5 -31.5q0 -9 -0.5 -18t-1.5 -18q-2 -50 -3 -98.5
t-1 -97.5v-62t2 -62q1 -23 5 -49.5t4 -48.5q0 -17 -10 -32t-29 -15z" />
    <glyph glyph-name="v" unicode="v" horiz-adv-x="329" 
d="M284 444q-5 -17 -9.5 -34t-6.5 -28q-10 -38 -18.5 -75.5t-19.5 -74.5l-62 -222l-11 -10h-28q-11 0 -17 4t-11 11q-3 5 -4.5 11.5t-3.5 12.5q-8 26 -13 52t-11 52q-17 69 -30 138.5t-25 138.5q-1 6 -3.5 17.5t-4.5 24.5t-4 25.5t-2 20.5q0 5 1.5 12t5 13t9.5 10.5t15 4.5
q16 0 22 -12t8 -23q8 -55 17.5 -109.5t20.5 -108.5q5 -28 10.5 -55.5t12.5 -54.5q7 29 14 57.5t14 57.5q5 20 9.5 41t9.5 41q2 10 4.5 19.5t4.5 18.5q4 21 7.5 42t8.5 41q2 8 3.5 14.5t5.5 14.5q5 8 11.5 14t18.5 6q8 0 18.5 -2t20.5 -7t16.5 -13.5t6.5 -22.5q0 -12 -3 -29
t-8 -34z" />
    <glyph glyph-name="w" unicode="w" horiz-adv-x="417" 
d="M269 -3q-14 0 -21 15.5t-9 26.5t-4 21.5t-5 21.5q-5 26 -10.5 51.5t-10.5 51.5q-8 38 -14 76t-13 76q-1 -11 -4.5 -38.5t-8.5 -62.5t-10.5 -74t-11 -72.5t-10.5 -57.5t-8 -29q-7 -11 -23 -11q-12 0 -23.5 8.5t-14.5 20.5q-11 45 -16.5 91t-11.5 91t-12.5 88t-11.5 88
l-6 50t-6 51q-1 10 -1 19.5t-3 18.5l4 12q12 14 31 14q8 0 17 -0.5t17 -2.5q11 -5 14 -14t3 -20q0 -26 3.5 -51t6.5 -51q5 -40 9.5 -79t9.5 -78q4 29 7.5 58t7.5 58q2 20 6 41t6 41q2 14 3.5 28t3.5 28q2 12 9 23t21 11q9 0 14.5 -6.5t9 -16t5.5 -19.5t2 -16q1 -10 3.5 -19
t4.5 -19q11 -63 20.5 -125t23.5 -124q2 14 3.5 27.5t3.5 27.5q8 50 13.5 99t13.5 99q2 16 3 32t3 33q1 13 7 22.5t20 9.5t21.5 -12t7.5 -25q0 -8 -1 -16.5t-3 -16.5q-5 -35 -8.5 -68.5t-8.5 -67.5q-7 -54 -14.5 -106.5t-12.5 -106.5q-2 -20 -4.5 -41t-4.5 -41l-2 -12t-3 -12
q-8 -19 -27 -19z" />
    <glyph glyph-name="x" unicode="x" horiz-adv-x="309" 
d="M26 11q-11 4 -19 13t-8 20q0 5 9.5 32.5t22.5 60.5t24.5 64t16.5 43q2 5 5.5 12.5t3.5 12.5q0 1 -2.5 9.5t-6 18.5t-7 19t-4.5 12q-4 11 -14 37t-20 54t-17.5 52t-7.5 32q0 14 8.5 24t22.5 10q13 0 19 -8.5t10 -19.5q12 -38 24.5 -75.5t26.5 -75.5l61 162q4 9 10 16.5
t17 7.5t20 -6.5t17 -11.5t14 -10.5t6 -15.5q0 -7 -8.5 -27.5t-19 -45t-20.5 -47t-13 -32.5l-36 -105q5 -15 11.5 -29.5t12.5 -28.5q4 -11 12.5 -34t17 -48t15 -46.5t6.5 -30.5q0 -14 -9 -19.5t-22 -5.5q-19 0 -27 21q-14 33 -25 67.5t-24 68.5q-4 -11 -11 -32t-15 -43.5
t-16.5 -41.5t-14.5 -27q-10 -12 -23 -12q-10 0 -24 9h1z" />
    <glyph glyph-name="y" unicode="y" horiz-adv-x="324" 
d="M111 -255q-9 0 -18.5 1t-18 4.5t-13.5 10t-5 18.5q0 19 4 36.5t9 35.5q5 20 8.5 39.5t7.5 39.5q2 14 5 26.5t3 26.5q0 29 -6 56.5t-13 56.5q-2 8 -2.5 15.5t-2.5 15.5q-4 20 -8.5 40t-8.5 40q-11 51 -18.5 101t-17.5 101q-5 23 -9.5 47.5t-4.5 48.5q0 12 7.5 22.5
t20.5 10.5q14 0 21.5 -11t9.5 -24q11 -91 25.5 -173.5t34.5 -171.5q5 34 9.5 68t10.5 68q5 22 7 44t5 45q4 26 8 50.5t9 49.5q2 11 4 21t4 23q2 7 4.5 12t8.5 5t16.5 -2t21.5 -5t21 -6.5t15 -6.5q3 -5 3 -9q0 -15 -4.5 -31t-7.5 -30q-5 -23 -8.5 -46.5t-8.5 -46.5l-98 -588
q-2 -12 -9.5 -20t-20.5 -8z" />
    <glyph glyph-name="z" unicode="z" horiz-adv-x="302" 
d="M96 63q14 0 27.5 0.5t27.5 0.5q15 0 30.5 -1t30.5 -1q11 0 21 -8t10 -20q0 -5 -2 -12.5t-6 -11.5q-7 -7 -17 -7q-26 1 -51 1h-51q-20 0 -42 -0.5t-42 -3.5h-6q-12 0 -19 8t-7 19q0 17 7 35t12 34q20 60 38 120.5t41 120.5q14 39 29 78.5t31 77.5h-3q-17 1 -32.5 -0.5
t-32.5 -1.5h-36q-8 0 -16.5 0.5t-15.5 3t-11.5 8t-4.5 16.5q0 9 5 15q8 13 28 13q13 0 26 0.5t26 0.5h21t21 1q10 2 14 2q10 0 19 -0.5t18 -0.5h27q14 0 24.5 -15t10.5 -29q0 -10 -3 -17q-19 -60 -39.5 -118.5t-40.5 -118.5q-16 -48 -32.5 -95t-34.5 -94z" />
    <glyph glyph-name="braceleft" unicode="{" horiz-adv-x="207" 
d="M89 571q0 -40 8.5 -78.5t8.5 -77.5q0 -20 -7 -31.5t-25 -20.5q14 -20 23 -38t9 -43q0 -18 -5 -34t-9 -33q-8 -38 -13 -78.5t-5 -78.5q0 -32 8 -62.5t22 -59.5q8 -17 19.5 -32.5t11.5 -34.5q0 -14 -9 -21.5t-23 -7.5t-24 9q-10 10 -20 28t-18 38.5t-14.5 40.5t-10.5 34
q-6 23 -6.5 48t-0.5 49q0 38 5.5 76.5t14.5 76.5q1 4 4 12.5t6 18t5.5 17.5t2.5 11q0 6 -6.5 14t-14 17t-14 19t-6.5 22t4.5 19t11 11.5t15 7.5t16.5 8q-1 5 -2.5 9.5t-3.5 9.5q-11 34 -18.5 72t-7.5 73q0 51 18 98t63 74q14 7 27 7q11 0 17 -6.5t6 -16.5q0 -12 -5 -19.5
t-12.5 -13.5l-15 -12t-11.5 -14q-5 -10 -9 -24t-6 -28.5t-3 -29t-1 -25.5z" />
    <glyph glyph-name="bar" unicode="|" horiz-adv-x="137" 
d="M43 -121q-1 0 -2.5 -0.5t-3.5 -0.5h-9q-8 2 -14 8.5t-6 19.5v81q0 26 0.5 70t0.5 91.5t0.5 91.5t0.5 70v102q0 88 -1 173.5t-1 173.5v21q1 8 5 17t12 9q5 0 9 0.5t9 -0.5q8 -2 10.5 -9t3.5 -12q1 -4 0.5 -8t-0.5 -8v-91v-355v-87.5t0.5 -108.5t0.5 -109v-87v-21
q0 -13 -4.5 -22t-10.5 -9z" />
    <glyph glyph-name="braceright" unicode="}" horiz-adv-x="225" 
d="M111 299q0 -3 2.5 -11t5.5 -17.5t6 -18t4 -12.5q9 -38 14.5 -76.5t5.5 -76.5q0 -24 -1 -49t-6 -48q-4 -14 -10.5 -34t-14.5 -40.5t-18 -38.5t-20 -28q-11 -9 -24 -9q-14 0 -23 7.5t-9 21.5q0 19 11.5 34.5t19.5 32.5q14 29 21.5 59.5t7.5 62.5q0 38 -4.5 78.5t-12.5 78.5
q-4 17 -9 33t-5 34q0 25 9 43t23 38q-18 9 -25 20.5t-7 31.5q0 39 8.5 77.5t8.5 78.5q0 11 -1 25.5t-3.5 29t-6 28.5t-8.5 24q-5 8 -12 14t-14.5 12t-12.5 13.5t-5 19.5q0 10 6 16.5t16 6.5q13 0 27 -7q46 -27 64 -74.5t18 -97.5q0 -35 -7.5 -73t-18.5 -72q-2 -5 -4 -9.5
t-2 -9.5q1 0 1 -0.5t1 -0.5q8 -4 16 -7t14.5 -8t10.5 -12t4 -18q0 -12 -6.5 -22t-14 -19t-14 -17t-6.5 -14z" />
    <glyph glyph-name="asciitilde" unicode="~" horiz-adv-x="312" 
d="M166 258q-20 0 -31 8.5t-18.5 21t-13.5 26t-14 22.5q-6 -1 -13 -11t-15 -22t-16.5 -22t-17.5 -10q-10 0 -17 7t-7 17q0 7 6 17.5t14.5 21.5t17 20.5t14.5 14.5q18 15 39 15q18 0 28 -9.5t17.5 -21t14 -21t16.5 -9.5q4 0 8.5 4t8 9t6 10.5t3.5 8.5q3 14 7 26.5t22 12.5
q11 0 18.5 -6t7.5 -17q0 -13 -4 -25.5t-9 -24.5q-4 -7 -8 -16.5t-9 -15.5q-11 -13 -24.5 -22t-30.5 -9z" />
    <glyph glyph-name="exclamdown" unicode="&#xa1;" horiz-adv-x="136" 
d="M40 364q-23 0 -33 16t-10 36q0 8 2.5 17.5t7 18t12 14t16.5 5.5q22 0 33.5 -18t11.5 -37q0 -17 -10.5 -34.5t-29.5 -17.5zM78 -91v-81.5t-3 -80.5q-1 -15 -10.5 -25.5t-24.5 -10.5q-17 0 -28 12t-11 28q0 20 1 39t1 39q0 38 -1 76.5t-1 76.5q0 75 3.5 148t3.5 148
q0 15 9.5 23.5t23.5 8.5q17 0 23 -9t6 -25q0 -10 0.5 -20t0.5 -20q0 -61 3.5 -121.5t3.5 -121.5v-84z" />
    <glyph glyph-name="cent" unicode="&#xa2;" horiz-adv-x="283" 
d="M145 -5v-100q0 -6 -7.5 -11.5t-13.5 -5.5q-13 0 -19 10.5t-6 21.5q0 23 0.5 45t0.5 44q-24 15 -41.5 44t-29.5 63.5t-17.5 69.5t-5.5 62q0 34 4 76.5t14.5 83.5t29.5 77t49 57q3 7 4 9t1 10q0 12 -1 24t-1 24t3.5 25.5t19.5 13.5q9 0 13 -5.5t5 -13t0.5 -15.5t-0.5 -14
q0 -14 1 -28t-1 -28q15 -9 23.5 -23t13 -30.5t5.5 -34t1 -33.5q0 -11 -3 -22t-17 -11q-11 0 -17 8.5t-6 18.5q0 9 0.5 17.5t0.5 17.5q0 8 -1 15t-4 14q-2 -29 -3 -57.5t-1 -57.5q0 -78 1.5 -156.5t1.5 -157.5q19 10 25 31.5t7.5 43.5t5 38.5t18.5 16.5q13 0 18.5 -11.5
t5.5 -22.5q0 -19 -3.5 -42.5t-12.5 -44.5t-24 -37t-37 -19zM97 412q-13 -57 -15 -115t-2 -117q0 -29 3.5 -57t17.5 -54q-2 86 -3 171.5t-1 171.5z" />
    <glyph glyph-name="sterling" unicode="&#xa3;" horiz-adv-x="362" 
d="M253 8q-15 0 -29.5 5t-29.5 11t-31 11t-34 5q-19 0 -28.5 -6.5t-15.5 -14t-11 -14t-16 -6.5q-21 0 -32 14t-11 34q0 10 2.5 22.5t6.5 26t8 26.5t6 24q5 27 7.5 55.5t2.5 56.5q0 24 -1.5 47.5t-2.5 47.5q-14 2 -27.5 9.5t-13.5 24.5q0 19 11.5 24t26.5 3q-4 32 -7.5 63.5
t-3.5 63.5q0 24 2.5 49t8.5 49.5t16 47t26 40.5q7 7 15 11.5t16 9.5q10 5 19.5 8t21.5 3q24 0 42.5 -15t31 -36.5t19.5 -46.5t7 -45q0 -6 -2.5 -17t-7 -22.5t-10.5 -19.5t-14 -8q-12 0 -21.5 10.5t-9.5 22.5q0 11 4.5 21.5t4.5 21.5q0 6 -2.5 18t-6.5 24t-10.5 21t-13.5 9
q-4 0 -9 -5q-20 -17 -28 -46t-8 -55q0 -92 6 -185q11 1 23 1.5t23 0.5q13 0 24 -7.5t11 -21.5t-7.5 -20.5t-18.5 -9t-23 -2.5h-21h-9q-2 -33 -3.5 -66.5t-5.5 -66.5q-4 -29 -9 -58l-10 -58q13 3 26 3q18 0 36.5 -5t35 -11t30.5 -11t23 -5q8 0 12.5 6.5t15.5 6.5
q14 0 21.5 -12t7.5 -24q0 -10 -6 -17t-14.5 -11.5t-18 -7t-17.5 -2.5z" />
    <glyph glyph-name="currency" unicode="&#xa4;" horiz-adv-x="377" 
d="M266 477q8 -21 9.5 -39t1.5 -40q0 -26 -10 -57.5t-24 -53.5q4 -6 11 -18.5t14.5 -25.5t13 -25t5.5 -18q0 -13 -8.5 -22t-22.5 -9q-17 0 -22.5 10t-9.5 24q-3 9 -11 21t-13 21q-11 -6 -23 -10t-26 -4q-21 0 -43 8q-18 -25 -31 -57q-7 -22 -26 -22q-14 0 -25.5 8.5
t-11.5 22.5q0 6 5.5 17.5t13 24.5t14.5 25t11 18q-14 23 -23 49.5t-9 54.5q0 23 8 43.5t18 40.5q-10 16 -20.5 31.5t-21.5 29.5q-4 5 -6.5 10.5t-2.5 12.5q0 5 2 9.5t4 9.5l11 7h10q19 0 32 -16q8 -11 17 -22.5t17 -22.5q31 20 66 20q17 0 31 -4t29 -11q10 14 19 29t19 30
q10 14 24 14q13 0 23 -9t10 -22q0 -8 -6.5 -18.5t-14.5 -22.5t-16 -23t-12 -19zM177 471q-7 0 -14 -1t-12 -5q-9 -7 -15.5 -19t-10.5 -25.5t-5.5 -27.5t-1.5 -24q0 -19 4.5 -37t18.5 -31q6 -6 12 -6q8 0 15.5 3t13.5 7q8 5 15 17.5t12 27t8 29t3 23.5q0 12 -1 24t-5.5 22
t-13 16.5t-23.5 6.5z" />
    <glyph glyph-name="yen" unicode="&#xa5;" horiz-adv-x="368" 
d="M116 422q-7 21 -16 41.5t-17 40.5q-18 44 -33 88t-31 89q-5 12 -9.5 20.5t-4.5 22.5q0 13 7 22.5t21 9.5q12 0 22 -8t15 -19q6 -15 10 -30.5t9 -30.5q17 -48 35 -94.5t38 -92.5q7 19 13 37.5t13 37.5q4 11 8.5 22.5t8.5 23.5q6 22 12.5 43.5t13.5 43.5q3 12 6 23.5
t8 22.5q4 10 11 17.5t18 7.5q14 0 23.5 -10t9.5 -23q0 -7 -3 -19t-7.5 -25.5t-9 -26.5t-6.5 -21q-4 -11 -7.5 -23t-7.5 -24q-8 -26 -17 -51t-17 -51q-5 -17 -10.5 -32.5t-8.5 -32.5h7q8 0 15 0.5t15 0.5q18 0 34.5 -6.5t16.5 -28.5q0 -18 -9.5 -25.5t-23 -10t-28.5 -1
t-27 1.5v-89h47q16 0 30 -5.5t14 -25.5q0 -4 -2 -12q-4 -12 -11 -16t-18 -5q-15 -1 -30.5 -0.5t-30.5 -0.5q0 -38 1.5 -76.5t1.5 -76.5q0 -23 -17 -34t-37 -11q-44 0 -44 45q0 26 0.5 51.5t0.5 51.5v24.5t-1 24.5h-64q-15 0 -22 8.5t-7 22.5q0 25 15 29.5t35 4.5h41
q1 23 1 45.5t1 45.5h-22h-20.5t-21 3t-16 9.5t-6.5 19.5q0 23 13.5 30.5t33.5 7.5q10 0 19.5 -0.5t18.5 -0.5z" />
    <glyph glyph-name="brokenbar" unicode="&#xa6;" horiz-adv-x="122" 
d="M33 374q-15 0 -22 9t-7 23q0 75 2.5 149.5t2.5 149.5q0 7 -0.5 14t-0.5 14q0 14 5.5 26t22.5 12q14 0 20 -8t6 -21q0 -59 -2 -117t-2 -117v-24.5v-34.5t-1 -34t-2 -22q-5 -19 -22 -19zM35 -111q-31 0 -31 32q0 75 2.5 150t2.5 150q0 7 -0.5 13.5t-0.5 13.5q0 14 5.5 26
t22.5 12q26 0 26 -28q0 -59 -2 -117t-2 -118v-24.5v-34.5t-1 -34t-2 -22q-2 -8 -7 -13.5t-13 -5.5z" />
    <glyph glyph-name="section" unicode="&#xa7;" horiz-adv-x="238" 
d="M139 160q17 -27 25.5 -60t8.5 -65q0 -20 -2.5 -48t-11 -53.5t-25 -43t-44.5 -17.5q-24 0 -38.5 16.5t-22.5 40t-10.5 48.5t-2.5 43q0 6 0.5 14t2.5 15t6.5 12t13.5 5q7 0 12 -4.5t8 -11t4 -13.5t1 -13q0 -17 1 -35t7 -35q2 -5 5.5 -12.5t9.5 -9.5l8 9q12 12 14.5 34.5
t2.5 39.5q0 33 -8 55t-20 39.5t-26.5 33.5t-26.5 36.5t-20 48.5t-8 69q0 44 7.5 84.5t33.5 77.5q-14 27 -22 64t-8 68q0 17 3.5 43.5t12 51t23.5 42.5t38 18q21 0 34 -12.5t20.5 -30.5t10 -38t2.5 -36q0 -6 -0.5 -14t-3 -14.5t-7 -11.5t-12.5 -5q-9 0 -14 5.5t-7.5 13.5
t-2.5 17v15v4q0 3 -1 9.5t-3 13.5t-5 12t-8 5q-8 0 -12 -11.5t-6 -26t-2.5 -28.5t-0.5 -20q0 -32 8.5 -61t34.5 -50q10 -8 15.5 -14t11.5 -17q16 -30 23.5 -70.5t7.5 -74.5q0 -38 -8.5 -76t-26.5 -71zM94 412q-26 -49 -26 -109q0 -29 7 -54t24 -50q12 26 17 54t5 56
q0 12 -0.5 26t-3.5 28.5t-8.5 27t-14.5 21.5z" />
    <glyph glyph-name="dieresis" unicode="&#xa8;" 
d="M148 813q-16 0 -24.5 13t-8.5 27q0 17 9.5 28t26.5 11q15 0 25 -11.5t10 -25.5q0 -17 -10.5 -29.5t-27.5 -12.5zM40 813q-16 0 -24.5 13t-8.5 27q0 17 9.5 28t26.5 11q14 0 24.5 -11.5t10.5 -25.5q0 -17 -10.5 -29.5t-27.5 -12.5z" />
    <glyph glyph-name="copyright" unicode="&#xa9;" horiz-adv-x="505" 
d="M214 64q-17 0 -32.5 3.5t-29.5 8.5q-59 22 -89 63.5t-44 99.5q-8 33 -13 67t-5 68q0 26 2 50.5t4 49.5q6 46 22.5 86t44 69.5t65.5 46t88 16.5q87 0 138 -41.5t62 -129.5q2 -23 3.5 -46.5t1.5 -46.5q0 -36 -3 -81.5t-12 -90.5t-26.5 -85t-45.5 -65q-26 -22 -62 -32
t-69 -10zM253 642q-40 0 -71 -21q-35 -25 -54.5 -55t-29.5 -64.5t-12 -72t-2 -76.5q0 -14 4 -36t10 -45.5t13 -45t13 -34.5q11 -20 24.5 -35.5t34.5 -26.5q11 -5 23.5 -9t25.5 -8q2 0 8 2q36 9 59 27.5t37 43t21.5 54.5t13.5 63q6 32 6.5 64.5t0.5 64.5q0 20 -1 46t-5 52
t-13 49t-25 37q-14 13 -38 19.5t-43 6.5zM235 174q-20 0 -38.5 8t-29.5 25q-25 36 -36.5 79t-11.5 87q0 21 4.5 54t16 63.5t30 53t46.5 22.5q20 0 34.5 -9t24 -23.5t14 -32.5t4.5 -36q0 -5 -1 -14.5t-3.5 -18.5t-7.5 -16t-12 -7q-9 0 -16 5.5t-7 15.5q0 11 3 22t3 22
q0 5 -1 13t-3 15.5t-7 12.5t-12 5q-2 0 -5 -2t-4 -4q-5 -5 -9.5 -14t-8.5 -19.5t-6.5 -21t-3.5 -16.5q-3 -21 -3.5 -42t-0.5 -42q0 -9 3 -32t8.5 -47.5t14.5 -43t21 -18.5t17.5 9.5t9 21t7.5 21t13 9.5q11 0 17.5 -8.5t6.5 -19.5q0 -5 -1 -7q-4 -15 -9 -27.5t-13 -22
t-19.5 -15t-28.5 -5.5z" />
    <glyph glyph-name="ordfeminine" unicode="&#xaa;" horiz-adv-x="273" 
d="M201 490q0 -21 -13 -27.5t-30 -6.5q-23 0 -26 22q-19 -24 -48 -24q-21 0 -40 13q-24 16 -32 38.5t-8 49.5q0 22 4 48t14.5 48.5t28 38t45.5 15.5q16 0 31 -5q0 4 -1.5 13t-3.5 18t-6 16t-10 7q-2 0 -8 -2q-12 -6 -19.5 -16t-12.5 -19.5t-9 -16.5t-9 -6q-10 2 -17 8t-7 16
q0 4 1 6q11 36 29 57t59 21q30 0 47.5 -13.5t26 -34.5t10.5 -46t2 -48q0 -22 1 -43.5t1 -43.5v-83zM103 659q-18 0 -29 -12t-16.5 -29t-7.5 -35.5t-2 -31.5q0 -15 3 -27t18 -20q6 -4 12 -4q12 0 20 14t13 32.5t7.5 36.5t2.5 27q0 6 -0.5 12.5t-1.5 13.5q-1 10 -4 16.5
t-15 6.5z" />
    <glyph glyph-name="guillemotleft" unicode="&#xab;" horiz-adv-x="398" 
d="M204 290q5 -8 16.5 -24.5t26.5 -38t31.5 -44.5t30 -42.5t22 -34t8.5 -18.5q0 -9 -10 -18.5t-19 -9.5q-8 0 -16.5 9.5t-13.5 15.5q-34 51 -71 99.5t-70 99.5q-6 7 -6 17q0 5 8 20t20 34.5t26.5 42.5t28 43.5t24.5 37t16 24.5q5 9 11 17.5t14 13.5q8 4 13 4t13 -2.5
t15.5 -6.5t13 -10.5t5.5 -13.5q0 -9 -5 -19q-2 -5 -5.5 -8.5t-5.5 -8.5l-24 -36t-24 -35q-19 -27 -37.5 -53.5t-35.5 -54.5zM79 290q5 -9 17 -26t27 -38t31 -43.5t29.5 -42t22.5 -34t9 -18.5q0 -9 -10.5 -18.5t-19.5 -9.5q-8 0 -15 6.5t-11 12.5q-36 52 -73 102t-72 102
q-7 10 -7 18q0 5 1 8t3 7q9 19 21 36.5t23 34.5q20 29 38.5 57.5t36.5 58.5q5 8 11.5 17t15.5 14q8 4 12 4q5 0 19 -5.5t18 -8.5q11 -8 11 -20q0 -10 -6 -18.5t-11 -16.5q-14 -17 -25 -35t-24 -36q-38 -54 -72 -108z" />
    <glyph glyph-name="logicalnot" unicode="&#xac;" horiz-adv-x="437" 
d="M344 184q-14 0 -21.5 9t-7.5 22q0 17 1.5 34.5t1.5 34.5v16h-36q-39 0 -78.5 -1t-78.5 -3q-24 -2 -47.5 -3t-47.5 -1q-16 0 -22.5 5.5t-6.5 22.5q0 8 2 23t10 20q5 4 12 5t13 1q57 0 112.5 4t112.5 4q9 0 18.5 -0.5t18.5 -0.5q7 0 13 0.5t12 0.5q17 0 26.5 -5.5
t14.5 -14.5t6.5 -21.5t1.5 -26.5v-12q-2 -21 -2.5 -41.5t-0.5 -40.5q0 -13 -6.5 -22t-20.5 -9z" />
    <glyph glyph-name="uni00AD" unicode="&#xad;" horiz-adv-x="281" 
d="M85 186q-16 0 -31 0.5t-31 0.5q-23 0 -23 20q0 15 6.5 18.5t20.5 3.5q43 0 85.5 0.5t85.5 0.5q14 0 19 -5.5t5 -19.5q0 -8 -7 -12.5t-14 -4.5q-29 0 -58 -1t-58 -1z" />
    <glyph glyph-name="registered" unicode="&#xae;" horiz-adv-x="334" 
d="M137 306q-19 0 -38 8q-47 20 -72.5 64.5t-25.5 94.5v22q0 14 1.5 27.5t3.5 27.5q5 49 28.5 81.5t74.5 44.5q18 5 34 5q19 0 39.5 -4.5t39.5 -14.5t33 -24.5t20 -33.5q10 -33 10 -70q0 -8 -1 -15t-2 -15q-4 -27 -10.5 -50.5t-16.5 -49.5l-8 -20t-9 -19q-15 -27 -42.5 -43
t-58.5 -16zM163 645q-10 0 -19 -3q-27 -9 -42.5 -26.5t-23 -39t-9.5 -46.5t-2 -50q0 -14 3.5 -33t10 -38t16.5 -34.5t23 -22.5q7 -3 13.5 -5.5t13.5 -4.5q1 1 3 1q15 5 26 11t20 19q17 23 26 51t15 56q3 14 6 27.5t3 27.5t-2.5 27.5t-4.5 27.5q-2 12 -9.5 22t-18.5 17.5
t-24 11.5t-24 4zM163 481l13.5 -13.5t17 -18.5t14.5 -20t6 -17t-4.5 -11.5t-10.5 -4.5t-11.5 4.5t-10 10.5t-8 12.5t-7.5 10.5l-23 23q1 -12 1.5 -24t0.5 -24q0 -11 -5.5 -14.5t-15.5 -3.5q-11 0 -19 2.5t-8 15.5q0 42 -0.5 83.5t-0.5 83.5q0 10 8 16.5t18.5 11t22 6.5
t19.5 2q23 0 44.5 -13.5t21.5 -39.5q0 -11 -6 -23t-15.5 -22.5t-20.5 -19.5t-21 -13zM159 576q-9 0 -13 -1q-7 -3 -7 -9q0 -15 -0.5 -30t-0.5 -30q7 3 16 8.5t17 13t13.5 15.5t5.5 17q0 11 -11.5 13.5t-19.5 2.5z" />
    <glyph glyph-name="macron" unicode="&#xaf;" horiz-adv-x="298" 
d="M32 819q-8 0 -17.5 4.5t-9.5 14.5q0 11 9.5 15t18.5 4h160q8 0 15.5 -4.5t7.5 -13.5q0 -13 -10.5 -16t-20.5 -3q-38 -2 -76.5 -1.5t-76.5 0.5z" />
    <glyph glyph-name="degree" unicode="&#xb0;" horiz-adv-x="257" 
d="M103 473q-30 0 -50 11.5t-32 30.5t-17 44t-5 51q0 19 2.5 38t9.5 36t19 31t32 22q7 3 14.5 5.5t14.5 2.5q14 0 28.5 -1.5t26.5 -7.5q27 -14 40 -39.5t13 -54.5q0 -20 -5.5 -49t-17 -55.5t-30 -45.5t-43.5 -19zM113 694q-10 0 -20 -8q-18 -14 -22.5 -33.5t-4.5 -40.5
q0 -8 1 -22t4.5 -27.5t10 -23t18.5 -9.5q15 0 24.5 13t15.5 30.5t8.5 36t2.5 29.5q0 9 -2 18.5t-6.5 17.5t-12 13.5t-17.5 5.5z" />
    <glyph glyph-name="plusminus" unicode="&#xb1;" horiz-adv-x="397" 
d="M179 269v-117q0 -8 1 -14.5t1 -13.5q0 -14 -6.5 -26.5t-22.5 -12.5q-10 0 -15.5 5t-8.5 12t-4 15.5t-1 16.5q0 14 1 28.5t1 28.5q0 20 -0.5 39t-0.5 39q-26 0 -52 0.5t-52 0.5q-11 0 -16 5t-7 12.5t-2 16v16.5q0 23 8 28t28 5h92v52q0 20 -2 39.5t-2 39.5q0 14 7 27
t22 13t22.5 -13.5t7.5 -26.5q0 -32 0.5 -65t0.5 -65q15 1 30 1h31h26t27 -2t18.5 -12t4.5 -22q0 -8 -0.5 -17t-3 -16t-8 -11.5t-16.5 -4.5h-54.5t-54.5 -1zM331 20q0 -3 -3 -4q-5 -8 -17 -8q-15 0 -46.5 -0.5t-66.5 -0.5t-66.5 -0.5t-46.5 -0.5q-16 0 -31 0.5t-31 0.5
q-14 0 -18.5 5.5t-4.5 14.5q0 13 5.5 17t21.5 4q21 0 59.5 0.5t80.5 0.5t81 0.5t60 0.5q23 0 24 -17v-8q0 -4 -1 -5z" />
    <glyph glyph-name="uni00B2" unicode="&#xb2;" horiz-adv-x="220" 
d="M84 820q-6 -3 -11 -13t-11 -20.5t-12.5 -19t-15.5 -8.5q-12 0 -19 9t-7 20q0 7 3 15q4 12 10.5 25t16 23.5t21.5 17.5t27 7q26 0 42.5 -18.5t16.5 -43.5t-6.5 -48t-14.5 -46q-13 -36 -24 -72.5t-25 -72.5q7 1 13.5 1h13.5q14 0 27 -6t13 -22q0 -20 -13 -25.5t-29 -5.5
q-14 0 -27 -0.5t-27 -3.5q-10 -2 -15 -2q-14 0 -22 10.5t-8 23.5q0 15 9 47t20.5 67.5t23 69t17.5 51.5q3 10 7 19.5t6 20.5z" />
    <glyph glyph-name="uni00B3" unicode="&#xb3;" horiz-adv-x="237" 
d="M136 730q17 -14 23 -34t6 -42q0 -13 -3 -27.5t-9 -28t-15 -24.5t-21 -17q-11 -5 -23.5 -6.5t-23.5 -1.5q-25 0 -39.5 8.5t-25.5 30.5q-3 7 -3 14q0 11 7.5 19.5t18.5 8.5q9 0 14 -4t8 -8.5t5 -8t7 -3.5q10 0 16.5 6t10 15t4.5 19t1 18q0 9 -4 21.5t-16 12.5q-5 0 -10 -1
t-10 -1q-12 0 -21 7.5t-9 19.5q0 14 11 21.5t23 8.5q17 2 21.5 8t9.5 21q2 8 4.5 15.5t2.5 15.5q0 9 -2 16t-13 7q-8 0 -12 -6t-8.5 -12.5t-10 -12.5t-16.5 -6t-17 8.5t-6 18.5q0 15 10 31t23 24q8 5 22.5 8.5t23.5 3.5q37 0 56 -22.5t19 -57.5q0 -26 -7.5 -44t-21.5 -39z
" />
    <glyph glyph-name="acute" unicode="&#xb4;" horiz-adv-x="171" 
d="M23 786q-11 0 -18 7.5t-7 17.5q0 6 5 15t11.5 18.5t13.5 18t10 13.5q4 5 6.5 9.5t6.5 9.5q4 6 9.5 11t13.5 5q9 0 16.5 -7.5t7.5 -16.5q0 -5 -7 -17.5t-16.5 -26.5t-18.5 -27t-13 -18q-9 -12 -20 -12z" />
    <glyph glyph-name="mu" unicode="&#xb5;" horiz-adv-x="329" 
d="M234 -34q-9 0 -15 5.5t-9.5 13t-6 16t-3.5 15.5q-9 -17 -22.5 -27.5t-32.5 -10.5q-33 0 -54 29q-1 -23 -1 -46.5v-47.5q0 -40 0.5 -79.5t0.5 -80.5q0 -9 -4 -18t-11 -16.5t-15.5 -12.5t-17.5 -5q-13 0 -20.5 6.5t-11 16.5t-4.5 21.5t-1 21.5v426v16t1 16q2 49 2 97t2 97
q2 23 16 32.5t35 9.5q24 0 37 -8.5t13 -35.5q0 -20 -1.5 -40t-2.5 -40t-1.5 -39.5t-0.5 -39.5q0 -13 1.5 -43t4.5 -62t7 -60t9 -37q5 -10 15 -10q11 0 18 20t11 45t6 48.5t3 31.5q5 60 6 120t1 120q0 13 7.5 19t19.5 6q13 0 20.5 -5t7.5 -19v-83q0 -2 -0.5 -3t-0.5 -3
q-1 -8 -1 -17v-17q-1 -22 -1.5 -43t-0.5 -43q0 -29 1.5 -58.5t3.5 -58.5q2 -24 6 -47t9 -46q2 -8 2 -14q0 -11 -7 -22t-20 -11z" />
    <glyph glyph-name="paragraph" unicode="&#xb6;" horiz-adv-x="344" 
d="M255 110q0 -24 0.5 -48t0.5 -47q0 -14 0.5 -36t-2.5 -43t-12.5 -36.5t-29.5 -15.5q-17 0 -26.5 9.5t-9.5 26.5q0 160 3.5 318t3.5 319q0 8 -0.5 16t-0.5 16q0 25 12.5 40t38.5 15q20 0 25.5 -11.5t5.5 -28.5l-1 -160q0 -32 -2 -63t-2 -63v-102q0 -27 -2 -53.5t-2 -52.5z
M124 -98q0 -12 -8.5 -14.5t-17.5 -2.5q-17 0 -22.5 14t-5.5 27v109q0 45 1 88.5t1 88.5v15t-1 15q-23 15 -36.5 36.5t-21.5 46t-10.5 51t-2.5 51.5q0 24 3.5 60.5t14.5 70.5t31 58.5t54 24.5q17 0 23.5 -13t6.5 -29q0 -26 -2.5 -53t-2.5 -54q0 -26 -1 -52.5t-1 -53.5
q-1 -26 -0.5 -52t0.5 -52q0 -59 -1.5 -116.5t-1.5 -116.5q0 -37 0.5 -73.5t0.5 -73.5z" />
    <glyph glyph-name="periodcentered" unicode="&#xb7;" horiz-adv-x="145" 
d="M40 323q-17 0 -27.5 15t-10.5 31q0 20 11 32t32 12q17 0 28.5 -13t11.5 -30q0 -18 -13.5 -32.5t-31.5 -14.5z" />
    <glyph glyph-name="cedilla" unicode="&#xb8;" horiz-adv-x="182" 
d="M51 -16q1 -3 -7.5 -5.5t-10.5 -2.5q-13 0 -20.5 10.5t-7.5 21.5q0 5 3 17t6.5 25.5t8 24.5t7.5 14q7 5 13 5q2 0 4 -0.5t4 -0.5l5 -2q18 -6 18 -23q0 -7 -3 -14.5t-5 -14.5q28 -3 41.5 -25.5t13.5 -48.5q0 -29 -17 -51.5t-48 -22.5q-18 0 -35.5 11.5t-17.5 32.5
q0 10 6.5 16.5t16.5 6.5q12 0 16 -6t12 -6q10 0 13.5 8t3.5 16q0 6 -5 11t-11 5q-2 0 -4 -2z" />
    <glyph glyph-name="uni00B9" unicode="&#xb9;" horiz-adv-x="148" 
d="M24 798q-8 1 -13.5 5.5t-8.5 10.5l1 10q5 12 10.5 24t12.5 23q5 8 9.5 11t14.5 3q20 0 25 -16.5t5 -32.5q0 -37 -1 -73.5t-2 -74.5q-1 -17 -1 -33.5t-1 -33.5q-1 -11 -0.5 -22t-1.5 -22q-2 -14 -11.5 -16.5t-20.5 -2.5q-23 0 -23 24q0 54 2 108z" />
    <glyph glyph-name="ordmasculine" unicode="&#xba;" horiz-adv-x="239" 
d="M85 430q-26 0 -42 14.5t-26 35.5t-13.5 45t-3.5 44t4 50.5t14.5 59.5t28 49.5t44.5 20.5q21 0 36.5 -12.5t25 -30.5t14 -39t4.5 -38q0 -21 -2.5 -54.5t-11.5 -66t-26 -55.5t-46 -23zM89 678q-13 0 -21 -12t-12.5 -28t-6 -32.5t-1.5 -25.5t0.5 -20.5t2.5 -22.5t6 -21
t12 -16q3 -3 8 -3q13 0 20.5 15.5t11 36t4 41t0.5 29.5v17t-2 19.5t-7 16t-15 6.5z" />
    <glyph glyph-name="guillemotright" unicode="&#xbb;" horiz-adv-x="411" 
d="M164 60q-9 0 -19.5 9.5t-10.5 18.5q0 4 8.5 18.5t22 34t30 42t31.5 43.5t27 38t17 26l-36 54t-37 54q-12 17 -22.5 35t-24.5 34q-6 8 -12 17t-6 20q0 13 11 20q4 3 18 8.5t18 5.5q9 0 16.5 -6t12.5 -13q3 -4 5.5 -8t4.5 -8q18 -30 36.5 -58.5t38.5 -57.5q11 -17 23 -34.5
t21 -36.5q2 -4 3 -7t1 -8q0 -9 -6 -18q-35 -51 -70.5 -99t-70.5 -99q-2 -3 -5 -6.5t-5 -6.5q-4 -5 -9 -8.5t-11 -3.5zM38 60q-9 0 -19 9.5t-10 18.5q0 4 8.5 18.5t22 34t30 42.5t31.5 44.5t27 38t17 24.5q-18 28 -36 54.5t-37 53.5q-13 18 -25 37t-26 37q-5 8 -9.5 15.5
t-4.5 17.5q0 12 11 19q4 3 18 8.5t19 5.5q4 0 12 -4q9 -5 15 -13.5t11 -17.5q4 -8 15 -24.5t25 -37t28.5 -43.5t26.5 -42.5t20 -34.5t8 -20t-2 -9l-4 -8q-34 -51 -70.5 -99.5t-71.5 -99.5q-4 -6 -13 -15.5t-17 -9.5z" />
    <glyph glyph-name="onequarter" unicode="&#xbc;" horiz-adv-x="458" 
d="M53 339q-13 0 -21.5 6t-8.5 20q0 32 1.5 63t3.5 63q2 41 3 81t2 81h-5q-8 0 -13.5 3.5t-10.5 8.5l-4 16q9 15 16.5 31.5t18.5 30.5q7 10 15 12t19 2q25 0 32 -17t7 -37q0 -71 -2 -140.5t-4 -140.5q-1 -16 -0.5 -32.5t-3.5 -32.5q-4 -14 -18.5 -16t-26.5 -2zM253 753l1 1
q3 3 5.5 3.5t7.5 0.5q10 0 23 -8t13 -19q0 -4 -5 -21t-11.5 -37.5t-13 -39.5t-8.5 -26q-12 -40 -23 -80l-22 -80q-7 -26 -12 -51.5t-13 -50.5q-19 -58 -36 -122q-8 -30 -17 -59.5t-19 -59.5q-2 -8 -5.5 -21.5t-7.5 -28.5t-8 -27.5t-7 -17.5q-6 -11 -19 -11q-9 0 -22 7.5
t-13 18.5q0 2 3 13.5t7 25t7.5 24.5t3.5 13q15 51 28 101t28 101q10 35 21.5 70.5t22.5 70.5q17 58 31.5 115.5t31.5 115.5q1 4 5 16t8.5 25t8.5 24t6 14zM295 186q-3 -1 -6.5 -1h-6.5q-4 0 -14.5 0.5t-21.5 1t-20.5 1.5t-12.5 2q-9 3 -15 9.5t-6 16.5q0 5 1 8.5t3 7.5
q4 8 12.5 27.5t20 44t23.5 51t23 49t19.5 38.5t12.5 20q12 14 28 14q19 0 29 -9.5t14.5 -24t4.5 -31v-29.5q0 -35 -1.5 -70.5t-1.5 -70.5v-4q9 -4 12 -11.5t3 -16.5q0 -11 -4 -18t-17 -7v-9q0 -16 1 -32t1 -33v-27.5t-1 -27.5q-2 -28 -14.5 -36.5t-38.5 -8.5q-18 0 -24 10.5
t-6 26.5q0 35 1.5 69.5t1.5 69.5zM301 316q-9 -19 -18 -37.5t-17 -37.5q7 -1 13.5 -1h12.5h6q3 33 3 68v8z" />
    <glyph glyph-name="onehalf" unicode="&#xbd;" horiz-adv-x="500" 
d="M54 339q-14 0 -22.5 6t-8.5 20q0 32 1.5 63t3.5 63q2 41 3 81t2 81h-5q-8 0 -13.5 3.5t-10.5 8.5l-3 7l-1 9q9 15 16.5 31.5t18.5 30.5q7 10 15 12t19 2q25 0 32 -17t7 -37q0 -71 -2 -140.5t-4 -140.5q0 -16 0.5 -32.5t-4.5 -32.5q-4 -14 -18 -16t-26 -2zM325 81
q11 1 22.5 1.5t23.5 0.5q15 0 32 -6.5t17 -25.5q0 -20 -14.5 -27.5t-31.5 -7.5q-5 0 -9.5 0.5t-9.5 0.5q-21 0 -42 -4.5t-42 -4.5q-17 0 -26.5 12t-9.5 28q0 15 4 29.5t9 28.5q12 44 26.5 86.5t29.5 84.5q7 19 14.5 37.5t13.5 37.5q4 12 11.5 29t7.5 28l-1 1
q-5 0 -10.5 -4.5t-11 -10.5t-9.5 -12t-6 -10q-3 -6 -6 -13t-7 -14t-10 -11.5t-14 -4.5q-13 0 -22.5 10t-9.5 23q0 5 1 10t3 10q7 16 16 32t21 29t27.5 21t35.5 8q32 0 54.5 -22.5t22.5 -54.5q0 -20 -5 -41t-11 -40q-5 -16 -11 -31t-11 -30q-15 -44 -30 -87t-32 -86zM254 753
l1 1q5 4 12 4q10 0 23.5 -8t13.5 -19q0 -4 -5 -21t-11.5 -37.5t-13 -39.5t-8.5 -26q-12 -40 -23 -80l-22 -80q-7 -26 -12.5 -51.5t-13.5 -50.5q-19 -58 -36 -122q-8 -30 -17 -59.5t-18 -59.5q-3 -8 -6.5 -21.5t-7.5 -28.5t-8 -27.5t-7 -17.5q-6 -11 -19 -11t-24 8.5
t-11 22.5q0 3 3 13t6.5 21.5t7 22t5.5 14.5q14 51 27 101t28 101q11 35 22.5 70.5t22.5 70.5q17 58 31.5 115.5t31.5 115.5q1 4 4.5 16t8 25t8.5 24t7 14z" />
    <glyph glyph-name="threequarters" unicode="&#xbe;" horiz-adv-x="564" 
d="M180 -2q-13 0 -24.5 7.5t-11.5 21.5q0 6 2.5 16t6.5 20.5t7.5 20.5t5.5 16q15 51 28 101t28 101q11 35 22.5 70.5t22.5 70.5q11 37 20 73.5t20 73.5q3 9 10 34.5t15 53t15.5 50t10.5 25.5q8 5 14 5q10 0 23.5 -8t13.5 -19q0 -5 -5 -22t-11.5 -37t-13 -38.5t-8.5 -26.5
q-12 -40 -23 -80l-22 -80q-7 -26 -12.5 -51.5t-13.5 -50.5q-10 -30 -19.5 -60.5t-17.5 -61.5q-2 -6 -7 -23.5t-11.5 -41t-14.5 -49.5t-14.5 -48t-11 -37t-5.5 -16q-7 -10 -19 -10zM401 186q-3 -1 -6.5 -1h-6.5q-4 0 -14.5 0.5t-22 1t-21 1.5t-12.5 2q-9 3 -15 9.5t-6 16.5
q0 5 1 8.5t3 7.5q4 8 12.5 27.5t20 43.5t24 50.5t23.5 49.5t19.5 39t12.5 20q12 14 28 14q20 0 30 -9.5t14.5 -24t4.5 -31v-29.5q0 -35 -1.5 -70.5t-1.5 -70.5v-4q9 -4 12 -11t3 -17q0 -11 -2 -17.5t-16 -6.5q-3 -32 -1.5 -65t-0.5 -65q-2 -28 -15 -36.5t-39 -8.5
q-18 0 -24 10.5t-6 26.5q0 35 1.5 69.5t1.5 69.5zM179 539q5 -4 11.5 -10t9.5 -11q10 -17 14.5 -37t4.5 -40q0 -17 -4 -35.5t-11.5 -35.5t-19.5 -31t-28 -21q-14 -5 -31.5 -7.5t-31.5 -2.5q-32 0 -51 10t-33 39q-2 4 -2.5 7t-0.5 8q0 13 8.5 22.5t22.5 9.5q13 0 18.5 -5
t9 -10.5t7.5 -10.5t14 -5q13 0 22.5 8t14.5 19.5t7.5 24.5t2.5 24q0 7 -1.5 16.5t-5 17.5t-10 14t-15.5 6q-7 0 -13.5 -1.5t-14.5 -1.5q-14 0 -24.5 9t-10.5 23q0 16 9 22.5t21.5 9t24.5 4.5t18 9q6 6 9.5 16t6.5 18t5.5 17t2.5 18q0 15 -4.5 26.5t-22.5 11.5q-11 0 -17 -8
t-11.5 -17t-13.5 -17t-21 -8q-14 0 -20.5 10t-6.5 22t5 23t13 20q9 10 15 16t12 9.5t14 6t21 4.5q13 3 25 3q45 0 71 -26.5t26 -71.5q0 -19 -3 -33t-8.5 -26.5t-13 -24.5t-16.5 -27zM407 316q-9 -19 -18 -37.5t-17 -37.5q7 -1 13 -1h13h6q3 33 3 68v8z" />
    <glyph glyph-name="questiondown" unicode="&#xbf;" horiz-adv-x="314" 
d="M125 137q0 57 -3 114t-3 115q0 10 5.5 17t13.5 10.5t17.5 5t17.5 1.5t15 -2t12 -10q5 -7 5.5 -11.5t0.5 -10.5q0 -20 0.5 -39t0.5 -39q0 -23 -0.5 -46.5t-0.5 -46.5q0 -18 2 -35.5t2 -35.5v-15.5t-2 -15.5q-2 -10 -8 -14.5t-14 -6.5q-7 -2 -15 -4t-17 -5
q-17 -5 -34 -21.5t-28 -59.5q-6 -18 -6 -36q0 -22 3 -39t20 -28q8 -5 17.5 -8.5t19.5 -3.5q30 0 41.5 17t16.5 40q3 12 4.5 23.5t3.5 20.5q5 25 21 25q11 0 20 -4.5t9 -21.5q0 -25 -5.5 -50t-13.5 -48q-9 -23 -31 -41.5t-46 -23.5q-8 -2 -16.5 -2h-16.5q-67 0 -98 38
t-31 104q0 21 3.5 42t11.5 41q9 23 24 50t38 41q22 12 44 19zM166 562q19 0 32 -15t13 -33q0 -9 -3 -19t-8.5 -18.5t-14 -14t-19.5 -5.5q-19 0 -32 14.5t-13 33.5q0 8 3 18t9 18.5t14 14.5t19 6z" />
    <glyph glyph-name="Agrave" unicode="&#xc0;" horiz-adv-x="318" 
d="M141 803q-13 0 -23 14q-4 6 -14 20.5t-20.5 30.5t-18.5 30t-8 19q0 11 7.5 19t18.5 8q9 0 15.5 -5t10.5 -12q4 -5 7 -11t7 -11q4 -6 11.5 -15.5t15 -20.5t13 -21t5.5 -16q0 -11 -8 -20t-19 -9zM241 2q-11 0 -18 6q-5 4 -7 9t-4 11q-8 30 -11 61l-6 62q-4 37 -9 73t-10 73
h-50q-4 -39 -7 -77.5t-6 -77.5q-2 -29 -4.5 -57.5t-2.5 -57.5q0 -10 -4 -15t-10.5 -7.5t-14 -3t-14.5 -0.5h-18.5t-19.5 2.5t-15.5 8.5t-6.5 18t1.5 24.5t3.5 24.5l8 74l8 74q13 127 25.5 252t26.5 252q1 9 4 17.5t12 12.5q8 3 21 3.5t21 0.5q15 0 27.5 -4.5t16.5 -21.5
q5 -21 7.5 -42t5.5 -42q6 -45 11 -88.5t12 -88.5q5 -32 7 -62.5t7 -62.5l24 -198q3 -20 5.5 -40t5.5 -40q2 -13 4.5 -25t2.5 -24q0 -13 -9 -18.5t-20 -5.5zM147 529q-4 -43 -7.5 -86t-7.5 -87h37q-5 44 -10.5 87t-11.5 86z" />
    <glyph glyph-name="Aacute" unicode="&#xc1;" horiz-adv-x="318" 
d="M117 796q-11 0 -18.5 9t-7.5 20q0 6 5.5 16t13 21t14.5 20.5t11 15.5q4 5 7 11t7 11q5 7 11.5 12.5t14.5 5.5q11 0 19 -8t8 -19q0 -5 -8 -19.5t-18.5 -30.5t-21 -30.5t-14.5 -20.5q-9 -14 -23 -14zM241 2q-11 0 -18 6q-5 4 -7 9t-4 11q-8 30 -11 61l-6 62q-4 37 -9 73
t-10 73h-50q-4 -39 -7 -77.5t-6 -77.5q-2 -29 -4.5 -57.5t-2.5 -57.5q0 -10 -4 -15t-10.5 -7.5t-14 -3t-14.5 -0.5h-18.5t-19.5 2.5t-15.5 8.5t-6.5 18t1.5 24.5t3.5 24.5q4 37 8 73.5t8 74.5q13 127 25.5 252t26.5 252q1 9 4 17.5t12 12.5q8 3 21 3.5t21 0.5
q15 0 27.5 -4.5t16.5 -21.5q5 -21 7.5 -42t5.5 -42q6 -45 11 -89t12 -88q5 -32 7 -62.5t7 -62.5l24 -198q3 -20 5.5 -40t5.5 -40q2 -13 4.5 -25t2.5 -24q0 -13 -9 -18.5t-20 -5.5zM147 529q-4 -43 -7.5 -86t-7.5 -87h37q-5 44 -10.5 86.5t-11.5 86.5z" />
    <glyph glyph-name="Acircumflex" unicode="&#xc2;" horiz-adv-x="318" 
d="M179 794q-12 0 -18 11q-10 15 -16 34t-12 35q-8 -17 -16 -33.5t-16 -33.5q-2 -5 -6 -9.5t-12 -4.5t-19.5 7t-11.5 17q0 4 8 23t18 41t19.5 41t13.5 24t9 9t12 4q8 0 13.5 -5t9.5 -12q3 -6 11 -24.5t17 -39t15.5 -38t6.5 -22.5q0 -10 -8 -17t-18 -7zM241 2q-11 0 -18 6
q-5 4 -7 9t-4 11q-8 30 -11 61l-6 62q-4 37 -9 73t-10 73h-50q-4 -39 -7 -77.5t-6 -77.5q-2 -29 -4.5 -57.5t-2.5 -57.5q0 -10 -4 -15t-10.5 -7.5t-14 -3t-14.5 -0.5h-18.5t-19.5 2.5t-15.5 8.5t-6.5 18t1.5 24.5t3.5 24.5q4 38 8 74.5t8 73.5q13 127 25.5 252t26.5 252
q1 9 4 17.5t12 12.5q8 3 21 3.5t21 0.5q15 0 27.5 -4.5t16.5 -21.5q5 -20 7.5 -41.5t5.5 -42.5q6 -45 11 -88.5t12 -88.5q5 -31 7 -62t7 -63l24 -198q3 -20 5.5 -40t5.5 -40q2 -13 4.5 -25t2.5 -24q0 -13 -9 -18.5t-20 -5.5zM147 530l-15 -174h37q-5 44 -10.5 87t-11.5 87z
" />
    <glyph glyph-name="Atilde" unicode="&#xc3;" horiz-adv-x="318" 
d="M165 845q2 3 3.5 6l3.5 7q11 24 11 49q0 11 4.5 21t17.5 10q12 0 18.5 -7.5t6.5 -18.5q0 -13 -3.5 -33t-11 -39t-19.5 -32.5t-29 -13.5t-27.5 6.5t-18 17t-13 22.5t-12.5 24q-2 -5 -5 -14t-7 -17t-9 -14t-12 -6q-11 0 -17 9t-6 19q0 11 4 25t11 26t17 20.5t23 8.5
q15 0 25.5 -11t18.5 -24.5t14 -26t12 -14.5zM241 2q-11 0 -18 6q-5 4 -7 9t-4 11q-8 30 -11 61l-6 62q-4 37 -9 73t-10 73h-50q-4 -39 -7 -77.5t-6 -77.5q-2 -29 -4.5 -57.5t-2.5 -57.5q0 -10 -4 -15t-10.5 -7.5t-14 -3t-14.5 -0.5h-18.5t-19.5 2.5t-15.5 8.5t-6.5 18
t1.5 24.5t3.5 24.5q4 37 8 73.5t8 74.5q13 127 25.5 252t26.5 252q1 9 4 17.5t12 12.5q8 3 21 3.5t21 0.5q15 0 27.5 -4.5t16.5 -21.5q5 -21 7.5 -42t5.5 -42q6 -45 11 -88.5t12 -88.5q5 -32 7 -62.5t7 -62.5l24 -198q3 -20 5.5 -40t5.5 -40q2 -13 4.5 -25t2.5 -24
q0 -13 -9 -18.5t-20 -5.5zM147 529q-4 -43 -7.5 -86t-7.5 -87h37q-5 44 -10.5 86.5t-11.5 86.5z" />
    <glyph glyph-name="Adieresis" unicode="&#xc4;" horiz-adv-x="318" 
d="M179 803q-17 0 -25 13t-8 27q0 17 9.5 28t26.5 11q15 0 25.5 -11.5t10.5 -25.5q0 -17 -11 -29.5t-28 -12.5zM78 803q-16 0 -24 13t-8 27q0 17 9.5 28t26.5 11q14 0 25 -11.5t11 -25.5q0 -17 -11 -29.5t-29 -12.5zM241 2q-11 0 -18 6q-5 4 -7 9t-4 11q-8 30 -11 61t-6 61
q-4 37 -9 73.5t-10 73.5q-12 -1 -24.5 -1h-25.5q-4 -38 -7 -76.5t-6 -77.5q-2 -29 -4.5 -57.5t-2.5 -57.5q0 -10 -4 -15t-10.5 -7.5t-14 -3t-14.5 -0.5h-18.5t-19.5 2.5t-15.5 8.5t-6.5 18t1.5 24.5t3.5 24.5q4 37 8 73.5t8 73.5q13 127 25.5 252t26.5 252q1 9 4 17.5
t12 12.5q8 3 21 3.5t21 0.5q15 0 27.5 -4.5t16.5 -21.5q5 -21 7.5 -42t5.5 -42q6 -45 11 -88.5t12 -88.5q5 -31 7 -62t7 -62l24 -198q3 -20 5.5 -40t5.5 -40q2 -13 4.5 -25t2.5 -24q0 -13 -9 -18.5t-20 -5.5zM147 529q-4 -44 -7.5 -87t-7.5 -86q9 0 18.5 -0.5t18.5 -0.5
q-5 44 -10.5 87t-11.5 87z" />
    <glyph glyph-name="Aring" unicode="&#xc5;" horiz-adv-x="318" 
d="M241 2q-11 0 -18 6q-5 4 -7 9t-4 11q-8 30 -11 61l-6 62q-4 37 -9 73.5t-10 72.5h-50q-4 -39 -7 -77.5t-6 -77.5q-2 -29 -4.5 -57.5t-2.5 -57.5q0 -10 -4 -15t-10.5 -7.5t-14 -3t-14.5 -0.5h-18.5t-19.5 2.5t-15.5 8.5t-6.5 18t1.5 24.5t3.5 24.5q4 38 8 74.5t8 73.5
q13 127 25.5 252t26.5 252q1 9 4 17.5t12 12.5q8 3 21 3.5t21 0.5q15 0 27.5 -4.5t16.5 -21.5q5 -20 7.5 -41.5t5.5 -42.5q6 -45 11 -88.5t12 -88.5q5 -31 7 -62t7 -62q6 -51 12 -100t12 -99q3 -20 5.5 -40t5.5 -40q2 -13 4.5 -25t2.5 -24q0 -13 -9 -18.5t-20 -5.5zM147 530
l-15 -174h37q-5 44 -10.5 87t-11.5 87zM135 957q24 0 36 -21t12 -42v-15q0 -19 -5 -33.5t-22 -25.5q-9 -6 -20 -6q-13 0 -23 6.5t-16.5 16.5t-10 22.5t-3.5 23.5q0 12 2.5 25t8.5 24t16 18t25 7zM132 859q11 0 13 11t2 19q0 3 -2.5 13.5t-6.5 10.5q-9 0 -14 -11.5t-5 -19.5
q0 -6 2.5 -14.5t10.5 -8.5z" />
    <glyph glyph-name="AE" unicode="&#xc6;" horiz-adv-x="490" 
d="M410 -1h-178q-11 0 -20 6l-5 11q0 23 -1.5 46t-1.5 46q0 48 1.5 94.5t1.5 94.5h-63q-15 -49 -27.5 -97.5t-28.5 -96.5q-2 -7 -6 -20.5t-8 -28.5t-7.5 -27t-5.5 -16q-7 -12 -20 -12q-4 0 -6.5 1t-6.5 3q-9 3 -15 7t-6 16q0 3 2 10.5t4.5 16.5t5 17t3.5 12q17 53 30 106.5
t28 107.5q10 34 21 68t21 68q12 40 22 79.5t21 79.5q10 35 19.5 70t22.5 69q6 14 14 20.5t23 7.5q14 1 28.5 1h28.5h62q7 0 18 0.5t22 -0.5t19 -5.5t8 -13.5q0 -5 0.5 -8.5t0.5 -7.5q0 -14 -7 -22q-8 -8 -19 -8q-24 0 -48 -0.5t-48 -0.5q2 -70 2.5 -139.5t-1.5 -139.5
q6 -1 12 -1h13q10 0 20 1t21 1q14 0 23.5 -7.5t9.5 -22.5q0 -22 -25 -29q-18 -4 -37 -4h-37v-144t1 -144q23 0 46.5 0.5t47.5 0.5q6 0 12.5 -1t11.5 -5l6 -8q1 -5 1 -9v-9q0 -14 -5 -24t-21 -10zM161 354h46q0 47 0.5 92.5t1.5 92.5q-8 -26 -14.5 -51.5t-13.5 -51.5
q-5 -20 -10 -41t-10 -41z" />
    <glyph glyph-name="Ccedilla" unicode="&#xc7;" horiz-adv-x="300" 
d="M111 8q-32 12 -53.5 41t-29.5 61q-17 66 -22 131t-5 132q0 47 6 92t13 91q4 26 13.5 59t26 62.5t40.5 49.5t57 20q45 0 69 -29t24 -73q0 -6 -0.5 -15t-3 -17.5t-7.5 -14.5t-14 -6q-17 0 -19.5 16t-2 35t-2 35t-17.5 16q-14 0 -23.5 -10t-14.5 -21q-14 -28 -26 -55
q-8 -17 -14 -43.5t-10.5 -55.5t-7 -56.5t-2.5 -46.5q0 -14 0.5 -29t0.5 -29q3 -63 8 -126t27 -123q2 -6 6.5 -15t10 -17.5t12 -14.5t13.5 -6q8 0 16 8q6 5 10 15.5t8.5 20.5t9.5 17.5t13 7.5q11 0 16.5 -9.5t5.5 -18.5q0 -16 -6.5 -32.5t-17.5 -29.5t-26 -21.5t-32 -8.5
q-3 0 -6 0.5t-6 0.5q-2 -4 -2.5 -7.5t-2.5 -8.5q29 1 43.5 -20t14.5 -47t-16 -47t-43 -21q-6 0 -14.5 2.5t-16 7.5t-12.5 11t-5 14t5 14t13 6q10 0 13 -6t15 -6t17 8.5t5 19.5q0 8 -5.5 15.5t-14.5 7.5q-8 0 -12 -5t-12 -5q-10 0 -15.5 8t-5.5 17q0 10 4.5 26.5t8.5 27.5z
" />
    <glyph glyph-name="Egrave" unicode="&#xc8;" 
d="M124 792q-8 0 -13 4.5t-9 9.5q-4 6 -14 20.5t-20.5 31t-18.5 30.5t-8 19q0 11 7.5 19t18.5 8q8 0 14.5 -5.5t11.5 -11.5q4 -5 7 -11t7 -11q4 -6 11 -15.5t14.5 -20.5t13 -21.5t5.5 -16.5q0 -11 -8 -20t-19 -9zM198 0h-171q-13 0 -20 8q-3 5 -4.5 16.5t-1.5 24v25v18.5
q0 120 1.5 238.5t1.5 238.5q0 38 -1.5 76.5t-1.5 76.5q0 17 10.5 28.5t27.5 11.5q29 0 56.5 0.5t55.5 0.5h41q9 0 17 -4t8 -15q0 -4 0.5 -7.5t0.5 -6.5q0 -14 -7 -24q-8 -8 -17 -8h-46.5t-46.5 -1q2 -70 1.5 -140t-0.5 -141h23q11 0 20.5 1t19.5 1q14 0 23 -8.5t9 -22.5
q0 -15 -11 -22t-26.5 -9.5t-31.5 -2t-26 0.5v-168v-121q23 0 45.5 0.5t45.5 0.5q14 0 24 -7l5 -10q0 -5 0.5 -10.5t0.5 -10.5q0 -11 -6 -19.5t-19 -8.5z" />
    <glyph glyph-name="Eacute" unicode="&#xc9;" 
d="M97 796q-11 0 -18.5 9t-7.5 20q0 6 5.5 16t13 21t14.5 20.5t11 15.5q4 5 7 11t6 11q5 7 11.5 12.5t14.5 5.5q11 0 19 -8.5t8 -18.5q0 -5 -8 -19.5t-18.5 -30.5t-20.5 -30.5t-14 -20.5q-5 -6 -10 -10t-13 -4zM198 0h-171q-13 0 -20 8q-3 5 -4.5 16.5t-1.5 24v25v18.5
q0 120 1.5 238.5t1.5 238.5q0 38 -1.5 76.5t-1.5 76.5q0 17 10.5 28.5t27.5 11.5q29 0 56.5 0.5t55.5 0.5h41q9 0 17 -3.5t8 -15.5q0 -4 0.5 -7t0.5 -7q0 -14 -7 -24q-8 -8 -17 -8h-46.5t-46.5 -1q2 -70 1.5 -140t-0.5 -140q6 -1 12 -1h11q11 0 20.5 1t19.5 1q14 0 23 -8.5
t9 -22.5q0 -15 -11 -22t-26.5 -9t-31.5 -1.5t-26 0.5v-169v-121q23 0 45.5 0.5t45.5 0.5q13 0 24 -6l5 -11q0 -5 0.5 -10.5t0.5 -10.5q0 -11 -6 -19.5t-19 -8.5z" />
    <glyph glyph-name="Ecircumflex" unicode="&#xca;" 
d="M158 794q-12 0 -18 11q-9 15 -15.5 34t-12.5 35q-8 -17 -15.5 -33.5t-15.5 -33.5q-2 -5 -6 -9.5t-11 -4.5q-8 0 -19.5 7t-11.5 17q0 4 7.5 23t17.5 40.5t19.5 41t13.5 24.5t9 9t12 4q8 0 13 -5t9 -12q3 -6 11 -24.5t17 -39t15.5 -38t6.5 -22.5q0 -10 -8 -17t-18 -7z
M198 0h-171q-13 0 -20 8q-3 5 -4.5 16.5t-1.5 24v25v18.5q0 120 1.5 238.5t1.5 238.5q0 38 -1.5 76.5t-1.5 77.5q0 16 10.5 28t27.5 12q29 0 56.5 0.5t55.5 0.5q11 0 20.5 -0.5t20.5 -0.5q9 0 17 -3.5t8 -14.5q0 -4 0.5 -7.5t0.5 -7.5q0 -14 -7 -24q-7 -7 -17 -7
q-23 0 -46.5 -0.5t-46.5 -0.5q2 -71 1.5 -141t-0.5 -140q6 -1 12 -1h11q11 0 20.5 1t19.5 1q14 0 23 -8t9 -23t-11 -22t-26.5 -9t-31.5 -1.5t-26 0.5v-169v-120q23 -1 45.5 -0.5t45.5 0.5q13 0 24 -6l5 -11q0 -5 0.5 -10.5t0.5 -10.5q0 -11 -6 -19.5t-19 -8.5z" />
    <glyph glyph-name="Edieresis" unicode="&#xcb;" 
d="M158 813q-16 0 -24.5 13t-8.5 27q0 17 9.5 28t26.5 11q15 0 25 -11.5t10 -25.5q0 -17 -10.5 -29.5t-27.5 -12.5zM50 813q-16 0 -24.5 13t-8.5 27q0 17 9.5 28t26.5 11q14 0 24.5 -11.5t10.5 -25.5q0 -17 -10.5 -29.5t-27.5 -12.5zM198 0h-171q-13 0 -20 8q-3 5 -4.5 16.5
t-1.5 24v25v18.5q0 120 1.5 238t1.5 238q0 38 -1.5 76.5t-1.5 76.5q0 17 10.5 29t27.5 12q29 0 56.5 0.5t55.5 0.5q11 0 20.5 -0.5t20.5 -0.5q9 0 17 -3.5t8 -14.5q0 -4 0.5 -7.5t0.5 -7.5q0 -14 -7 -24q-7 -7 -17 -7q-23 0 -46.5 -0.5t-46.5 -0.5q2 -71 1.5 -141t-0.5 -140
h23q11 0 20.5 1t19.5 1q14 0 23 -8.5t9 -22.5q0 -15 -11 -22t-26.5 -9.5t-31.5 -2t-26 0.5v-168v-121q23 0 45.5 0.5t45.5 0.5q14 0 24 -7l5 -10q0 -5 0.5 -10.5t0.5 -10.5q0 -11 -6 -19.5t-19 -8.5z" />
    <glyph glyph-name="Igrave" unicode="&#xcc;" horiz-adv-x="358" 
d="M135 802q-8 0 -13 4.5t-9 9.5q-4 6 -14.5 20.5t-21 31t-19 30.5t-8.5 19q0 11 8 19t19 8q9 0 15.5 -5.5t11.5 -11.5q4 -5 6.5 -11t6.5 -11q4 -6 11.5 -15.5t15 -20.5t13 -21.5t5.5 -16.5q0 -11 -7.5 -20t-19.5 -9zM161 -6q-27 0 -53.5 2.5t-53.5 2.5q-6 0 -12 -0.5
t-11 -0.5q-12 0 -25.5 4t-13.5 19q0 22 12.5 27.5t30.5 5.5h57v46q2 221 -6 442q-2 40 -3 79l-2 78h-2h-34.5t-33.5 4q-24 6 -24 29q0 12 8 19t19 7h104q8 0 16.5 -1t16.5 -1q17 0 35 -1t35 -1q7 0 14 0.5t14 0.5q11 0 22.5 -5.5t11.5 -17.5q0 -24 -14.5 -29t-32.5 -5
q-12 0 -24 0.5t-24 0.5v-36q0 -42 2.5 -84.5t2.5 -84.5q2 -111 2 -220v-220h30q9 0 20 -0.5t20.5 -3t15.5 -9.5t6 -20q0 -12 -8 -19t-20 -7q-25 0 -49 -0.5t-49 -0.5z" />
    <glyph glyph-name="Iacute" unicode="&#xcd;" horiz-adv-x="358" 
d="M127 796q-12 0 -19.5 9t-7.5 20q0 6 5.5 16t13 21t15 20.5t11.5 15.5q4 5 7 11t7 11q4 7 11 12.5t15 5.5q11 0 19 -8t8 -19q0 -5 -8 -19.5t-19 -30.5t-21.5 -30.5t-14.5 -20.5q-9 -14 -22 -14zM161 -6q-27 0 -53.5 2.5t-53.5 2.5q-6 0 -12 -0.5t-11 -0.5q-12 0 -25.5 4
t-13.5 19q0 22 12.5 27.5t30.5 5.5h57v46q2 221 -6 442q-2 40 -3 79l-2 78h-2h-34.5t-33.5 4q-24 4 -24 29q0 12 8 19t19 7h104q8 0 16.5 -1t16.5 -1q17 0 35 -1t35 -1q7 0 14 0.5t14 0.5q11 0 22.5 -5.5t11.5 -18.5q0 -23 -14.5 -28t-32.5 -5q-12 0 -24 0.5t-24 0.5v-36
q0 -42 2.5 -84.5t2.5 -84.5q2 -111 2 -220v-220h30q9 0 20 -0.5t20.5 -3t15.5 -9.5t6 -20q0 -12 -8 -19t-20 -7q-25 0 -49 -0.5t-49 -0.5z" />
    <glyph glyph-name="Icircumflex" unicode="&#xce;" horiz-adv-x="358" 
d="M189 804q-11 0 -19 11q-9 15 -15.5 34t-12.5 35q-8 -17 -16 -33.5t-16 -33.5q-2 -5 -6 -9.5t-11 -4.5q-9 0 -20.5 7t-11.5 17q0 4 8 23t18.5 41t20 41t13.5 24t8.5 9t11.5 4q8 0 13.5 -5t9.5 -12q3 -6 11.5 -24.5t17.5 -39t15.5 -38t6.5 -22.5q0 -10 -8 -17t-18 -7z
M161 -6q-27 0 -53.5 2.5t-53.5 2.5q-6 0 -12 -0.5t-11 -0.5q-12 0 -25.5 4t-13.5 19q0 22 12.5 28t30.5 6q14 0 28.5 -0.5t28.5 -0.5v46q1 221 -6 443q-2 39 -3 78t-2 79h-2q-15 0 -34.5 -0.5t-33.5 3.5q-24 6 -24 30q0 12 8 19t19 7h104q8 0 16.5 -1t16.5 -1q17 0 35 -1
t35 -1q7 0 14 0.5t14 0.5q11 0 22.5 -6t11.5 -18q0 -24 -14.5 -28.5t-32.5 -4.5h-48v-35q0 -43 2.5 -85t2.5 -85q2 -111 2 -220v-220h30q9 0 20 -0.5t20.5 -3t15.5 -9.5t6 -20q0 -12 -8 -19t-20 -7q-25 0 -49 -0.5t-49 -0.5z" />
    <glyph glyph-name="Idieresis" unicode="&#xcf;" horiz-adv-x="358" 
d="M179 803q-16 0 -24.5 13t-8.5 27q0 17 10 28t27 11q14 0 25 -11.5t11 -25.5q0 -17 -11.5 -29.5t-28.5 -12.5zM68 803q-16 0 -24 13t-8 27q0 17 9.5 28t26.5 11q15 0 25.5 -11.5t10.5 -25.5q0 -17 -11 -29.5t-29 -12.5zM161 -6q-27 0 -53.5 2.5t-53.5 2.5q-6 0 -12 -0.5
t-11 -0.5q-12 0 -25.5 4t-13.5 19q0 22 12.5 27.5t30.5 5.5h57v46q1 220 -6 442q-2 39 -3 78l-2 78h-2h-34.5t-33.5 4q-24 6 -24 29q0 12 8 19t19 7h104q8 0 16.5 -1t16.5 -1q17 0 35 -1t35 -1q7 0 14 0.5t14 0.5q11 0 22.5 -5.5t11.5 -18.5q0 -23 -14.5 -28t-32.5 -5
q-12 0 -24 0.5t-24 0.5v-36q0 -42 2.5 -84t2.5 -85q2 -110 2 -219.5v-219.5h30q9 0 20 -0.5t20.5 -3t15.5 -9.5t6 -20q0 -12 -8 -19t-20 -7q-25 0 -49 -0.5t-49 -0.5z" />
    <glyph glyph-name="Eth" unicode="&#xd0;" horiz-adv-x="376" 
d="M89 760q15 0 31.5 -12.5t27.5 -21.5q41 -31 70.5 -72t48 -88t27 -97.5t8.5 -100.5q0 -48 -5.5 -93.5t-21.5 -91.5q-8 -22 -16 -44.5t-19 -43t-25.5 -39t-34.5 -31.5q-20 -14 -38.5 -19.5t-42.5 -5.5q-14 0 -28.5 6t-19.5 20q-3 6 -4.5 32t-3 61.5t-2.5 76t-1.5 77
t-1 64.5t-0.5 37q-4 0 -7 -0.5t-6 -0.5q-26 0 -26 26q0 9 3.5 14t9 6.5t12.5 1.5h13q0 20 -0.5 40.5t-0.5 40.5q0 51 1.5 101t3.5 101q0 8 1 14.5t3 14.5q3 12 10 16.5t18 6.5q5 2 8 3t8 1zM124 376q1 -57 2 -112.5t1 -111.5q0 -10 -1 -19t-1 -19q0 -12 1 -24.5t2 -24.5
q18 4 32.5 18.5t25.5 28.5q17 22 26 48.5t17 52.5q10 27 14 55.5t6 57.5q1 13 1.5 25t0.5 24q0 41 -8 85.5t-24.5 86t-42.5 77.5t-62 60v-6q-1 -40 1.5 -80t4.5 -80l3 -96q13 1 25.5 2t24.5 1q26 0 26 -26q0 -8 -4.5 -14t-13.5 -7q-14 -2 -28.5 -2h-28.5z" />
    <glyph glyph-name="Ntilde" unicode="&#xd1;" horiz-adv-x="376" 
d="M184 835q2 3 3.5 6l3.5 7q11 21 11 49q0 11 5 21t18 10q12 0 18.5 -7.5t6.5 -18.5q0 -13 -3.5 -33t-11.5 -39t-20 -32.5t-28 -13.5q-17 0 -28 6.5t-18.5 17t-13 22.5t-12.5 24q-2 -5 -5 -14t-7 -17t-9 -14t-12 -6q-12 0 -17.5 9t-5.5 19q0 11 4 25t11 26t17 20.5t23 8.5
q15 0 25.5 -11t18.5 -24.5t14 -26t12 -14.5zM286 588q0 -20 1 -39t1 -39q0 -95 -1.5 -189t-1.5 -189q0 -22 0.5 -43.5t0.5 -44.5q0 -15 -5.5 -30t-25.5 -15q-11 0 -18 6.5t-12 16.5q-4 8 -6 15.5t-4 15.5q-15 59 -31 117t-31 117q-14 54 -26 107t-23 107q-2 -66 -2 -132
v-132v-100.5t1 -100.5q0 -2 1 -5t1 -6q0 -11 -6.5 -16.5t-16.5 -7.5t-20.5 -2h-18.5q-21 0 -31 7t-10 29q0 50 1.5 99t1.5 99q0 69 0.5 137.5t2.5 137.5q2 54 4 109.5t2 110.5q0 23 11 28.5t31 5.5h17t17 -2q11 -4 16 -13.5t7 -20.5q5 -27 12.5 -54t12.5 -54
q21 -95 43 -189.5t46 -189.5q0 85 0.5 167.5t0.5 166.5q0 38 -1.5 74.5t-1.5 74.5q0 16 7.5 28t25.5 12t24 -17t6 -32q0 -32 -1 -62.5t-1 -62.5z" />
    <glyph glyph-name="Ograve" unicode="&#xd2;" horiz-adv-x="353" 
d="M164 792q-8 0 -13 4.5t-10 9.5q-4 6 -14.5 20.5t-21 31t-18.5 30.5t-8 19q0 11 8 19t19 8q8 0 14.5 -5.5t11.5 -11.5q4 -5 7 -11t7 -11q4 -6 11.5 -15.5t15 -20.5t13 -21.5t5.5 -16.5q0 -11 -8 -20t-19 -9zM139 0q-26 0 -44 17t-31 37q-19 30 -31 67t-19 76.5t-9.5 79
t-2.5 74.5q0 38 3 85.5t11 96t22 93t35 76.5q14 23 36 42t51 19q17 0 28.5 -5.5t23.5 -16.5q14 -11 22.5 -24t17.5 -28l8 -13q12 -20 18.5 -46t9.5 -54t3.5 -55.5t0.5 -50.5q0 -34 0.5 -68t-1.5 -68q-1 -28 -7 -69.5t-15.5 -84.5t-23.5 -81.5t-30 -60.5q-13 -17 -34 -27.5
t-42 -10.5zM176 689h-1q-14 -7 -25 -27.5t-19.5 -48.5t-14 -60t-9.5 -63t-5.5 -56.5t-1.5 -40.5q0 -32 3.5 -71t9.5 -79t15.5 -77.5t21.5 -66.5q3 -8 6.5 -15.5t8.5 -13.5q6 2 10 10l7 14q19 44 30.5 90.5t17 94t7 96t1.5 95.5q0 24 -1 51t-5.5 54.5t-13 52.5t-23.5 45
q-3 4 -8.5 10t-10.5 6z" />
    <glyph glyph-name="Oacute" unicode="&#xd3;" horiz-adv-x="353" 
d="M146 796q-11 0 -19 9t-8 20q0 6 5.5 16t13 21t15 20.5t11.5 15.5q4 5 7 11t7 11q5 7 11.5 12.5t14.5 5.5q11 0 19 -8t8 -19q0 -5 -8 -19.5t-18.5 -30.5t-21 -30.5t-14.5 -20.5q-5 -6 -10 -10t-13 -4zM139 0q-26 0 -44 17t-31 37q-19 30 -31 67t-19 76.5t-9.5 79
t-2.5 74.5q0 38 3 85.5t11 96t22 93t35 76.5q14 23 36 42t51 19q17 0 28.5 -5.5t23.5 -16.5q14 -11 22.5 -23.5t17.5 -28.5l8 -13q12 -20 18.5 -46t9.5 -54t3.5 -55.5t0.5 -50.5q0 -34 0.5 -68t-1.5 -68q-1 -28 -7 -69.5t-15.5 -84.5t-23.5 -81.5t-30 -60.5
q-13 -17 -34 -27.5t-42 -10.5zM176 689h-1q-14 -7 -25 -27.5t-19.5 -48.5t-14 -60t-9.5 -63t-5.5 -56.5t-1.5 -40.5q0 -32 3.5 -71t9.5 -79t15.5 -77.5t21.5 -66.5q3 -8 6.5 -15.5t8.5 -13.5q6 2 10 10l7 14q19 44 30.5 90.5t17 94t7 96t1.5 95.5q0 24 -1 51t-5.5 54.5
t-13 52.5t-23.5 45q-3 4 -8.5 10t-10.5 6z" />
    <glyph glyph-name="Ocircumflex" unicode="&#xd4;" horiz-adv-x="353" 
d="M208 794q-12 0 -18 11q-10 15 -16.5 34t-12.5 35q-8 -17 -15.5 -33.5t-15.5 -33.5q-3 -5 -7 -9.5t-11 -4.5q-8 0 -20 7t-12 17q0 4 8 23t18.5 41t20 41t13.5 24t8.5 9t12.5 4t13.5 -5t8.5 -12q3 -6 11.5 -24.5t17.5 -39t15.5 -38t6.5 -22.5q0 -10 -8 -17t-18 -7zM139 0
q-26 0 -44 17t-31 37q-19 30 -31 67t-19 76.5t-9.5 79.5t-2.5 75q0 38 3 85.5t11 96t22 92.5t35 76q14 23 36 42.5t51 19.5q17 0 28.5 -6t23.5 -17q14 -11 22.5 -23.5t17.5 -27.5l8 -13q12 -20 18.5 -46.5t9.5 -54t3.5 -55.5t0.5 -51q0 -34 0.5 -68t-1.5 -68
q-1 -28 -7 -69.5t-15.5 -84.5t-23.5 -81.5t-30 -60.5q-13 -17 -34 -27.5t-42 -10.5zM176 689h-1q-14 -7 -25 -27.5t-19.5 -48.5t-14 -60t-9.5 -63t-5.5 -56.5t-1.5 -40.5q0 -32 3.5 -71t9.5 -79t15.5 -77.5t21.5 -66.5q3 -8 6.5 -15.5t8.5 -13.5q6 2 10 10l7 14
q19 44 30.5 90.5t17 94t7 96t1.5 95.5q0 24 -1 51t-5.5 54.5t-13 52.5t-23.5 45q-3 4 -8.5 10t-10.5 6z" />
    <glyph glyph-name="Otilde" unicode="&#xd5;" horiz-adv-x="353" 
d="M194 845l3 3q1 2 2 4.5l3 7.5q4 12 7 23t3 24q0 11 5 21t17 10t18.5 -7.5t6.5 -18.5q0 -13 -3.5 -33t-11 -39t-19.5 -32.5t-29 -13.5t-27.5 6.5t-18 17t-13.5 22.5t-13 24q-2 -5 -4.5 -14t-6.5 -17t-9.5 -14t-12.5 -6q-11 0 -16.5 9t-5.5 19q0 11 3.5 25t10.5 26
t17.5 20.5t23.5 8.5q14 0 24.5 -11t18.5 -24.5t14.5 -26t12.5 -14.5zM139 0q-26 0 -44 17t-31 37q-19 30 -31 67t-19 76.5t-9.5 79t-2.5 74.5q0 38 3 85.5t11 96t22 93t35 76.5q14 23 36 42t51 19q17 0 28.5 -5.5t23.5 -16.5q14 -11 22.5 -23.5t17.5 -28.5l8 -13
q12 -20 18.5 -46t9.5 -54t3.5 -55.5t0.5 -50.5q0 -34 0.5 -68t-1.5 -68q-1 -28 -7 -69.5t-15.5 -84.5t-23.5 -81.5t-30 -60.5q-13 -17 -34 -27.5t-42 -10.5zM176 689h-1q-14 -7 -25 -27.5t-19.5 -48.5t-14 -60t-9.5 -63t-5.5 -56.5t-1.5 -40.5q0 -32 3.5 -71t9.5 -79
t15.5 -77.5t21.5 -66.5q3 -8 6.5 -15.5t8.5 -13.5q6 2 10 10l7 14q19 44 30.5 90.5t17 94t7 96t1.5 95.5q0 24 -1 51t-5.5 54.5t-13 52.5t-23.5 45q-3 4 -8.5 10t-10.5 6z" />
    <glyph glyph-name="Odieresis" unicode="&#xd6;" horiz-adv-x="353" 
d="M217 803q-16 0 -24.5 13t-8.5 27q0 17 10 28t27 11q14 0 24.5 -11.5t10.5 -25.5q0 -17 -11 -29.5t-28 -12.5zM107 803q-17 0 -25 13t-8 27q0 17 9.5 28t26.5 11q15 0 25.5 -11.5t10.5 -25.5q0 -17 -11 -29.5t-28 -12.5zM139 0q-26 0 -44 17t-31 37q-19 30 -31 67
t-19 76.5t-9.5 79t-2.5 74.5q0 38 3 85.5t11 96t22 92.5t35 76q14 23 36 42t51 19q17 0 28.5 -5.5t23.5 -16.5q14 -11 22.5 -23.5t17.5 -27.5l8 -13q12 -20 18.5 -46.5t9.5 -54t3.5 -55.5t0.5 -51q0 -34 0.5 -67.5t-1.5 -68.5q-1 -28 -7 -69.5t-15.5 -84t-23.5 -81
t-30 -60.5q-13 -17 -34 -27.5t-42 -10.5zM176 688h-1q-14 -7 -25 -27.5t-19.5 -48.5t-14 -60t-9.5 -62.5t-5.5 -56.5t-1.5 -40q0 -32 3.5 -71t9.5 -79t15.5 -78t21.5 -67q3 -7 6.5 -14.5t8.5 -13.5q6 2 10 10l7 14q19 44 30.5 90.5t17 94t7 95.5t1.5 95q0 24 -1 51
t-5.5 54.5t-13 52.5t-23.5 45q-3 4 -8.5 10t-10.5 6z" />
    <glyph glyph-name="multiply" unicode="&#xd7;" horiz-adv-x="334" 
d="M235 86q-11 0 -19 8l-78 90q-16 -16 -29 -33.5t-27 -35.5q-5 -8 -16.5 -20t-21.5 -12q-14 0 -28 14t-14 28q0 7 11.5 24t26.5 36t30 36t21 23q-14 15 -27 31.5t-27 31.5q-8 9 -17 21.5t-9 25.5q0 12 8.5 18t19.5 6q8 0 14.5 -4.5t11.5 -10.5q14 -19 29.5 -36.5
t29.5 -36.5q6 7 12.5 13.5t12.5 13.5q13 14 25 29t24 29q10 10 20 10q15 0 28 -9.5t13 -25.5q0 -15 -10 -28q-18 -24 -36 -47t-37 -46q18 -19 42 -46.5t39 -48.5q8 -10 8 -20q0 -12 -9.5 -20t-20.5 -8z" />
    <glyph glyph-name="Oslash" unicode="&#xd8;" horiz-adv-x="405" 
d="M178 -3q-42 0 -75 24q-2 -6 -3.5 -14.5t-4.5 -16t-8.5 -13t-14.5 -5.5t-23 7.5t-14 18.5q0 3 3 14t6.5 24t7 24.5t5.5 15.5q-24 44 -32 93q-18 114 -18 232q0 36 2.5 81t11 90t23.5 86t39 68q12 13 33 19.5t38 6.5q23 0 43.5 -10t36.5 -26q4 14 8 28.5t10 28.5l7 7
q6 2 11 2q9 0 23 -8.5t14 -19.5q0 -3 -4 -17t-9 -30.5t-10 -32t-7 -21.5q31 -57 41.5 -122t10.5 -128q0 -13 1 -25t1 -25q0 -69 -15 -143.5t-43 -137.5q-14 -30 -36.5 -52.5t-58.5 -22.5zM174 669q-12 0 -20.5 -21t-14.5 -53.5t-9 -72t-5 -75.5t-2.5 -64.5t-0.5 -39.5v-24
q10 32 19.5 63.5t19.5 63.5q14 48 25.5 94.5t25.5 94.5q-5 8 -16.5 21t-21.5 13zM250 555q-8 -26 -14.5 -52t-13.5 -52q-7 -27 -13 -55t-15 -55q-14 -45 -26 -89t-24 -89q2 -9 6 -22t10 -25.5t14 -22.5t19 -13q9 2 17 15.5t15.5 33t13.5 42.5t10.5 44.5t7.5 39.5t5 27
q6 36 6 70q0 51 -2 102.5t-16 100.5z" />
    <glyph glyph-name="Ugrave" unicode="&#xd9;" horiz-adv-x="324" 
d="M153 802q-7 0 -12.5 4.5t-9.5 9.5q-4 6 -14.5 20.5t-21 31t-18.5 30.5t-8 19q0 11 8 19t19 8q8 0 14.5 -5.5t11.5 -11.5q4 -5 7 -11t7 -11q4 -6 11 -16t14.5 -21t13 -21t5.5 -16q0 -11 -7.5 -20t-19.5 -9zM139 -2q-21 0 -41.5 8.5t-34.5 25.5q-23 27 -32 60t-13 67
q-8 54 -8.5 108.5t-2.5 108.5q-2 61 -2.5 122t-0.5 123q0 28 0.5 56t0.5 56q0 13 7.5 21t21.5 8q7 0 17 0.5t19.5 0t17 -4t10.5 -11.5q1 -3 2 -19t1 -39v-49v-50t-0.5 -43t-0.5 -26q0 -85 3.5 -167t8.5 -167q0 -8 2.5 -26.5t7.5 -37t12.5 -32.5t19.5 -14q15 0 23.5 26.5
t12.5 61t5 66.5t1 44v459q0 17 7 22t22 5q12 0 21.5 -5t9.5 -19v-426v-53.5t-2.5 -66.5t-9 -69.5t-19.5 -62t-34 -44.5t-52 -17z" />
    <glyph glyph-name="Uacute" unicode="&#xda;" horiz-adv-x="324" 
d="M136 796q-12 0 -19.5 9t-7.5 20q0 6 5.5 16t13 21t14.5 20.5t11 15.5q4 5 7 11t7 11q5 7 11.5 12.5t14.5 5.5q11 0 19 -8t8 -19q0 -5 -8 -19.5t-18.5 -30.5t-21 -30.5t-14.5 -20.5q-9 -14 -22 -14zM139 -2q-21 0 -41.5 8.5t-34.5 25.5q-23 27 -32 60t-13 67
q-8 54 -8.5 108t-2.5 109q-2 61 -2.5 122t-0.5 123q0 28 0.5 55.5t0.5 56.5q0 13 7.5 21t21.5 8q7 0 17 0.5t19.5 -0.5t17 -4.5t10.5 -10.5q1 -3 2 -19t1 -39v-49v-50t-0.5 -43t-0.5 -26q0 -85 3.5 -167t8.5 -167q0 -8 2.5 -26.5t7.5 -37t12.5 -32.5t19.5 -14
q15 0 23.5 26.5t12.5 61t5 66.5t1 44v459q0 17 7 22t22 5q12 0 21.5 -5t9.5 -19v-426v-53.5t-2.5 -66.5t-9 -69.5t-19.5 -62t-34 -44.5t-52 -17z" />
    <glyph glyph-name="Ucircumflex" unicode="&#xdb;" horiz-adv-x="324" 
d="M197 804q-12 0 -18 11q-10 15 -16 34t-12 35q-8 -17 -16 -33.5t-16 -33.5q-2 -5 -6 -9.5t-11 -4.5q-8 0 -19.5 7t-11.5 17q0 4 8 23t18 40.5t19.5 41t13.5 24.5t8.5 9t11.5 4q8 0 13.5 -5t9.5 -12q3 -6 11 -24.5t17 -39t15.5 -38t6.5 -22.5q0 -10 -8 -17t-18 -7zM139 -2
q-21 0 -41.5 8.5t-34.5 25.5q-23 27 -32 60t-13 67q-8 54 -8.5 108.5t-2.5 108.5q-2 62 -2.5 123t-0.5 122q0 29 0.5 56.5t0.5 55.5q0 14 7.5 22t21.5 8q7 0 17 0.5t19.5 -0.5t17 -4.5t10.5 -11.5q1 -3 2 -19t1 -39v-49v-50t-0.5 -43t-0.5 -26q0 -84 3.5 -166.5t8.5 -166.5
q0 -9 2.5 -27t7.5 -37t12.5 -33t19.5 -14q15 0 23.5 26.5t12.5 61t5 66.5t1 44v459q0 17 7 22t22 5q12 0 21.5 -4.5t9.5 -18.5v-427v-53.5t-2.5 -66t-9 -69t-19.5 -62.5t-34 -45t-52 -17z" />
    <glyph glyph-name="Udieresis" unicode="&#xdc;" horiz-adv-x="324" 
d="M197 803q-17 0 -25 13t-8 27q0 17 9.5 28t26.5 11q14 0 25 -11.5t11 -25.5q0 -17 -11 -29.5t-28 -12.5zM87 803q-16 0 -24 13t-8 27q0 17 9.5 28t26.5 11q14 0 24.5 -11.5t10.5 -25.5q0 -17 -10.5 -29.5t-28.5 -12.5zM139 -2q-21 0 -41.5 8.5t-34.5 25.5q-23 27 -32 60
t-13 67q-8 54 -8.5 108t-2.5 108q-2 62 -2.5 123t-0.5 122q0 28 0.5 56t0.5 56q0 13 7.5 21t21.5 8q7 0 17 0.5t19.5 -0.5t17 -4.5t10.5 -10.5q1 -3 2 -19t1 -39v-49v-50t-0.5 -43t-0.5 -26q0 -84 3.5 -166.5t8.5 -166.5q0 -9 2.5 -27t7.5 -36.5t12.5 -32.5t19.5 -14
q15 0 23.5 26.5t12.5 61t5 66.5t1 44v458q0 17 7 22t22 5q12 0 21.5 -5t9.5 -19v-425v-53.5t-2.5 -66.5t-9 -69.5t-19.5 -62t-34 -44.5t-52 -17z" />
    <glyph glyph-name="Yacute" unicode="&#xdd;" horiz-adv-x="346" 
d="M137 786q-11 0 -19 9t-8 20q0 6 5.5 16t13 21t15 20.5t11.5 15.5q4 5 7 11t7 11q5 7 11.5 12.5t14.5 5.5q11 0 19 -8t8 -19q0 -5 -8 -19.5t-18.5 -30.5t-21 -30.5t-14.5 -20.5q-5 -6 -10 -10t-13 -4zM103 389q-13 51 -27.5 100t-29.5 100q-3 8 -9.5 28.5t-13.5 42.5
t-12.5 41t-5.5 24q0 14 10 25t24 11q12 0 19.5 -7t11.5 -18q14 -38 25 -77t22 -77q6 -18 11.5 -36t11.5 -37l68 213q5 14 10 26.5t25 12.5q4 0 11.5 -2t15.5 -4.5t15 -5t10 -4.5q14 -11 14 -27q0 -7 -2 -13l-4 -12q-28 -87 -55.5 -174.5t-53.5 -175.5q-16 -55 -31.5 -108.5
t-32.5 -107.5q-8 -26 -15.5 -51.5t-16.5 -51.5q-7 -21 -21 -23.5t-33 -2.5q-2 0 -4.5 -0.5t-4.5 -0.5q-14 0 -24.5 9.5t-10.5 23.5q0 4 3 15.5t7.5 24.5t8 25t5.5 17q11 33 20.5 67t18.5 69q10 35 21 70t19 71z" />
    <glyph glyph-name="Thorn" unicode="&#xde;" horiz-adv-x="223" 
d="M75 216q1 -39 0.5 -78t-0.5 -78q0 -11 -1 -21.5t-5.5 -19t-12.5 -14t-21 -5.5q-17 0 -25 11t-8 26q0 12 1 23.5t1 22.5q0 19 -0.5 37.5t-0.5 36.5q0 44 1 86.5t1 85.5q0 16 -0.5 31t-0.5 30q0 72 1 144t1 144v28t2 27q2 14 15.5 20.5t26.5 6.5q17 0 24.5 -10t7.5 -27
v-43.5t-1 -43.5q3 1 8 1q17 0 29.5 -7.5t22.5 -19.5q21 -25 28.5 -56.5t7.5 -63.5q0 -42 -6.5 -83.5t-17.5 -82.5q-5 -15 -10 -31.5t-12.5 -31.5t-19 -26.5t-28.5 -16.5zM73 279q13 12 23 38t16.5 55t9.5 57.5t3 46.5q0 11 -0.5 25t-3 28t-8 26t-15.5 20q-2 2 -4 2
q-3 0 -5.5 -2t-4.5 -4q-5 -5 -5.5 -12.5t-0.5 -14.5q0 -39 -0.5 -78.5t-1.5 -79.5q0 -26 -1.5 -53t-1.5 -54z" />
    <glyph glyph-name="germandbls" unicode="&#xdf;" horiz-adv-x="562" 
d="M4 2v25.5t0.5 63.5t0.5 88t-0.5 98.5t-1.5 94.5t-3 77q-4 80 19 147.5t67 111.5q20 19 43.5 31t48 18.5t47.5 7.5t43 0q55 -5 86 -25.5t45 -40.5q21 -29 27.5 -67.5t-3.5 -78.5q-12 -48 -29.5 -89t-39.5 -71q-14 -19 -16.5 -26t-1.5 -9q0 -3 10 -9q18 -10 46 -33.5
t52.5 -55.5t39 -71t4.5 -79q-16 -67 -88 -95q-45 -18 -94.5 -15t-86.5 26q-11 7 -13.5 19t4.5 23q7 10 18.5 12.5t22.5 -3.5q24 -16 60 -18t67 11q15 6 31 18.5t21 35.5q6 25 -5.5 52.5t-30.5 51.5t-40.5 42.5t-35.5 26.5q-34 18 -40 48q-5 23 4.5 44t23.5 39
q18 25 33.5 61.5t25.5 78.5q5 20 3.5 47t-17.5 49q-26 36 -88 41q-26 2 -49 -11t-43 -33q-35 -35 -53.5 -88.5t-15.5 -120.5q1 -33 2.5 -77t2 -92t1 -94.5t0.5 -84v-60.5v-24q0 -10 -4 -15q-2 -3 -18 -6.5t-34 -4.5t-33 0.5t-15 7.5z" />
    <glyph glyph-name="agrave" unicode="&#xe0;" horiz-adv-x="355" 
d="M157 595q-14 0 -23 14q-4 6 -14.5 20.5t-21 30.5t-18.5 30t-8 19q0 11 8 19t19 8q8 0 14.5 -5.5t11.5 -12.5q4 -5 7 -10.5t7 -11.5q4 -5 11 -15t14.5 -20.5t13 -20.5t5.5 -16q0 -11 -7.5 -20t-18.5 -9zM231 1q-3 -1 -10 -1q-12 0 -18.5 7.5t-9.5 18.5q-26 -25 -66 -25
q-11 0 -19.5 1t-18.5 6q-39 23 -58 65q-1 2 -1.5 4t-1.5 4q-5 9 -8.5 17.5t-5.5 17.5q-6 20 -8.5 41.5t-2.5 41.5q0 8 0.5 16t1.5 16q3 26 13 55t27 53t41 40t54 16q12 0 23.5 -3.5t22.5 -8.5q0 8 -0.5 27t-3 38.5t-8.5 34.5t-18 15q-16 0 -27 -9.5t-18.5 -23.5t-13 -29
t-10.5 -27l-14 -8q-14 3 -22 10.5t-8 22.5q0 2 0.5 4.5t0.5 4.5q4 19 12 40t21 38t30.5 28t40.5 11q29 0 50 -12t34.5 -31.5t21 -44.5t9.5 -50q5 -75 7.5 -149t2.5 -149q0 -23 1 -46.5t1 -46.5q0 -20 -13.5 -26t-30.5 -4zM133 330q-12 0 -22 -7.5t-18 -18.5t-13.5 -23
t-9.5 -22q-5 -14 -6.5 -28t-1.5 -28q0 -35 5.5 -65.5t31.5 -55.5q4 -4 11.5 -11t12.5 -7q15 0 27 10.5t21 25.5t13.5 31.5t4.5 28.5v146q0 4 -7.5 8t-17 7.5t-18.5 6t-13 2.5z" />
    <glyph glyph-name="aacute" unicode="&#xe1;" horiz-adv-x="355" 
d="M146 597q-11 0 -18.5 9t-7.5 20q0 6 5.5 16t13 20.5t14.5 20.5t11 15q4 6 7 11.5t7 10.5q5 7 11.5 12.5t14.5 5.5q11 0 19 -8t8 -19q0 -5 -8 -19t-18.5 -30t-21 -30.5t-14.5 -20.5q-9 -14 -23 -14zM231 1q-3 -1 -10 -1q-12 0 -18.5 7.5t-9.5 18.5q-26 -25 -66 -25
q-11 0 -19.5 1t-18.5 6q-39 23 -58 65q-1 2 -1.5 4t-1.5 4q-5 9 -8.5 17.5t-5.5 17.5q-6 20 -8.5 41.5t-2.5 41.5q0 8 0.5 16t1.5 16q3 26 13 55t27 53t41 40t54 16q12 0 23.5 -3.5t22.5 -8.5q0 8 -0.5 27t-3 38.5t-8.5 34.5t-18 15q-16 0 -27 -9.5t-18.5 -23.5t-13 -29
t-10.5 -27l-14 -8q-14 3 -22 10.5t-8 22.5q0 2 0.5 4.5t0.5 4.5q4 19 12 40t21 38t30.5 28t40.5 11q29 0 50 -12t34.5 -31.5t21 -44.5t9.5 -50q5 -75 7.5 -149t2.5 -149q0 -23 1 -46.5t1 -46.5q0 -20 -13.5 -26t-30.5 -4zM133 330q-12 0 -22 -7.5t-18 -18.5t-13.5 -23
t-9.5 -22q-5 -14 -6.5 -28t-1.5 -28q0 -35 5.5 -65.5t31.5 -55.5q4 -4 11.5 -11t12.5 -7q15 0 27 10.5t21 25.5t13.5 31.5t4.5 28.5v146q0 4 -7.5 8t-17 7.5t-18.5 6t-13 2.5z" />
    <glyph glyph-name="acircumflex" unicode="&#xe2;" horiz-adv-x="355" 
d="M200 593q-11 0 -19 11q-9 14 -15.5 33t-12.5 36q-8 -17 -15.5 -33.5t-15.5 -33.5q-7 -14 -18 -14q-8 0 -19.5 7t-11.5 17q0 4 8 23t18 40.5t19.5 40.5t13.5 24t8.5 9t12.5 4t13.5 -5t8.5 -12q3 -6 11.5 -24.5t17.5 -38.5t15.5 -38t6.5 -22q0 -10 -8 -17t-18 -7zM231 1
q-3 -1 -10 -1q-12 0 -18.5 7.5t-9.5 18.5q-26 -25 -66 -25q-11 0 -19.5 1t-18.5 6q-39 23 -58 66q-2 4 -3 7q-5 9 -8.5 17.5t-5.5 18.5q-6 20 -8.5 41t-2.5 42q0 8 0.5 16t1.5 16q3 26 13 54.5t27 52.5t41 40t54 16q25 0 46 -12q0 8 -0.5 27t-3 39t-8.5 35t-18 15
q-16 0 -27 -9.5t-18.5 -23.5t-13 -29.5t-10.5 -27.5l-14 -7q-14 3 -22 10.5t-8 21.5q0 2 0.5 4.5t0.5 5.5q4 19 12 39.5t21 37.5t30.5 28t40.5 11q29 0 50 -12t34.5 -31.5t21 -44.5t9.5 -50q5 -75 7.5 -149t2.5 -149q0 -23 1 -46.5t1 -46.5q0 -20 -13.5 -26t-30.5 -4z
M133 330q-12 0 -22 -7.5t-18 -18.5t-13.5 -23t-9.5 -22q-5 -14 -6.5 -28t-1.5 -28q0 -35 5.5 -65.5t31.5 -55.5q4 -4 11.5 -11t12.5 -7q15 0 27 10.5t21 25.5t13.5 31.5t4.5 28.5v147q0 3 -7.5 7t-17 7.5t-18.5 6t-13 2.5z" />
    <glyph glyph-name="atilde" unicode="&#xe3;" horiz-adv-x="355" 
d="M181 639l3.5 7t3.5 6q11 24 11 49q0 11 5 21t18 10q11 0 17.5 -7.5t6.5 -18.5q0 -13 -3.5 -33t-11 -38.5t-19.5 -32t-28 -13.5q-17 0 -28 6.5t-18.5 16.5t-13 22.5t-12.5 24.5q-2 -5 -5 -14t-7 -17.5t-9 -14.5t-12 -6q-11 0 -17 9t-6 20t4 24.5t11 25.5t17.5 20.5
t23.5 8.5q14 0 24.5 -11t18.5 -24.5t14 -25.5t12 -15zM231 1q-3 -1 -10 -1q-12 0 -18.5 7.5t-9.5 18.5q-26 -25 -66 -25q-11 0 -19.5 1t-18.5 6q-39 23 -58 65q-1 2 -1.5 4t-1.5 4q-5 9 -8.5 17.5t-5.5 17.5q-6 20 -8.5 41.5t-2.5 41.5q0 8 0.5 16t1.5 16q3 26 13 55t27 53
t41 40t54 16q12 0 23.5 -3.5t22.5 -8.5q0 7 -0.5 26t-3 39t-8.5 35t-18 15q-16 0 -27 -9.5t-18.5 -23.5t-13 -29t-10.5 -27l-14 -8q-14 3 -22 10.5t-8 22.5q0 2 0.5 4.5t0.5 4.5q4 19 12 40t21 38t30.5 28t40.5 11q29 0 50 -12.5t34.5 -32t21 -44t9.5 -49.5q5 -75 7.5 -149
t2.5 -149q0 -23 1 -46.5t1 -46.5q0 -20 -13.5 -26t-30.5 -4zM133 330q-12 0 -22 -7.5t-18 -18.5t-13.5 -23.5t-9.5 -22.5q-5 -13 -6.5 -27t-1.5 -28q0 -35 5.5 -65.5t31.5 -55.5q4 -4 11.5 -11t12.5 -7q15 0 27 10.5t21 25.5t13.5 31.5t4.5 28.5v146q0 4 -7.5 8t-17 7.5
t-18.5 6t-13 2.5z" />
    <glyph glyph-name="adieresis" unicode="&#xe4;" horiz-adv-x="355" 
d="M194 594q-16 0 -24.5 13t-8.5 27q0 17 10 28t27 11q14 0 24.5 -11.5t10.5 -25.5q0 -17 -11 -29.5t-28 -12.5zM93 594q-16 0 -24 13t-8 27q0 17 9.5 28t26.5 11q14 0 25 -11.5t11 -25.5q0 -17 -11 -29.5t-29 -12.5zM231 1q-3 -1 -10 -1q-12 0 -18.5 7.5t-9.5 18.5
q-26 -25 -66 -25q-11 0 -19.5 1t-18.5 6q-39 23 -58 65q-1 2 -1.5 4t-1.5 4q-10 18 -14 35q-6 20 -8.5 41t-2.5 42q0 8 0.5 16t1.5 16q3 26 13 54.5t27 52.5t41 40t54 16q12 0 23.5 -3.5t22.5 -8.5q0 8 -0.5 27t-3 38.5t-8.5 34.5t-18 15q-16 0 -27 -9.5t-18.5 -23.5
t-13 -29t-10.5 -27l-14 -8q-14 3 -22 10.5t-8 22.5q0 2 0.5 4.5t0.5 4.5q4 19 12 40t21 38t30.5 28t40.5 11q29 0 50 -12.5t34.5 -32t21 -44t9.5 -49.5q5 -75 7.5 -149t2.5 -149q0 -23 1 -46t1 -46q0 -20 -13.5 -26t-30.5 -4zM133 329q-12 0 -22 -7.5t-18 -18.5t-13.5 -23
t-9.5 -22q-5 -14 -6.5 -28t-1.5 -28q0 -34 5.5 -64.5t31.5 -55.5q4 -4 11.5 -11t12.5 -7q15 0 27 10t21 25t13.5 31.5t4.5 29.5v146q0 3 -7.5 7t-17 7.5t-18.5 6t-13 2.5z" />
    <glyph glyph-name="aring" unicode="&#xe5;" horiz-adv-x="355" 
d="M231 1q-3 -1 -10 -1q-12 0 -18.5 7.5t-9.5 18.5q-26 -25 -66 -25q-11 0 -19.5 1t-18.5 6q-39 23 -58 66q-2 4 -3 7q-5 9 -8.5 17.5t-5.5 18.5q-6 20 -8.5 41t-2.5 41q0 8 0.5 16t1.5 16q3 26 13 55t27 53t41 40t54 16q12 0 23.5 -3.5t22.5 -8.5q0 8 -0.5 27t-3 38.5
t-8.5 34.5t-18 15q-16 0 -27 -9.5t-18.5 -23.5t-13 -29t-10.5 -27l-14 -8q-14 3 -22 10.5t-8 22.5q0 2 0.5 4.5t0.5 4.5q4 19 12 40t21 38t30.5 28t40.5 11q29 0 50 -12t34.5 -31.5t21 -44.5t9.5 -50q5 -75 7.5 -149t2.5 -149q0 -23 1 -46.5t1 -46.5q0 -20 -13.5 -26
t-30.5 -4zM133 330q-12 0 -22 -7.5t-18 -18.5t-13.5 -23t-9.5 -22q-5 -14 -6.5 -28t-1.5 -28q0 -35 5.5 -65.5t31.5 -55.5q4 -4 11.5 -11t12.5 -7q15 0 27 10.5t21 25.5t13.5 31.5t4.5 28.5v147q0 3 -7.5 7t-17 7.5t-18.5 6t-13 2.5zM155 746q24 0 36 -21t12 -42v-15
q0 -19 -5 -33.5t-22 -25.5q-9 -6 -20 -6q-13 0 -23 6.5t-16.5 16.5t-10 22.5t-3.5 23.5q0 12 2.5 25t8.5 24t16 18t25 7zM152 648q11 0 13 11t2 19q0 3 -2.5 13.5t-6.5 10.5q-9 0 -14 -11.5t-5 -19.5q0 -6 2.5 -14.5t10.5 -8.5z" />
    <glyph glyph-name="ae" unicode="&#xe6;" horiz-adv-x="501" 
d="M330 -3q-24 0 -43.5 8t-36.5 26q-2 -16 -11 -25.5t-26 -9.5q-13 0 -20 7.5t-9 19.5q-13 -11 -29 -18t-33 -7q-22 0 -38 12q-23 15 -38.5 36t-25.5 46t-14.5 51.5t-4.5 52.5q0 29 8 63t24.5 63t42.5 48.5t61 19.5q21 0 42 -8q0 8 -1.5 22.5t-3.5 30.5t-5 30t-6 20
q-3 5 -8 5q-15 0 -26.5 -9t-19.5 -22.5t-13.5 -28.5t-9.5 -27l-17 -8q-12 4 -20 11.5t-8 21.5q0 7 1 10q4 20 12 41t21 37.5t31 27t42 10.5q38 0 58 -22.5t28 -57.5q15 34 40.5 58.5t66.5 24.5q27 0 46 -12t31 -31.5t17.5 -43.5t5.5 -48q0 -27 -6 -40t-17.5 -18t-28 -6
t-37.5 -4q-15 -2 -30 -2.5t-30 -2.5q-5 -24 -6 -50.5t-1 -50.5q0 -16 2 -42.5t7.5 -54t15 -50t24.5 -31.5q3 -2 7 -3.5t7 -1.5q9 0 17.5 6t15 14.5t12 17.5t9.5 16q9 20 31 20q12 0 20 -8t8 -20q0 -8 -4 -18.5t-9.5 -22t-12 -21t-12.5 -14.5q-20 -17 -43.5 -27.5
t-49.5 -10.5zM368 484l3 2q-4 0 -5.5 1.5t-3 4t-5 4t-10.5 1.5q-8 0 -15.5 -11t-13.5 -25.5t-10 -28.5t-5 -21l38 2t39 2q1 5 1 15q0 14 -2.5 28.5t-10.5 25.5zM182 304l-1 2q-11 8 -24 13t-27 5q-12 0 -21.5 -7t-17 -17.5t-13 -22.5t-9.5 -21q-8 -23 -8 -51
q0 -36 5.5 -67.5t33.5 -57.5q4 -3 10.5 -9t11.5 -6q14 0 25.5 11t19 26t11.5 31.5t4 28.5q0 34 -1 71t1 71z" />
    <glyph glyph-name="ccedilla" unicode="&#xe7;" horiz-adv-x="272" 
d="M122 -6l-1 -3q29 -4 41.5 -25t12.5 -47q0 -27 -18 -50t-47 -23q-8 0 -17 3t-17 8.5t-13.5 13t-5.5 16.5q0 11 7 19t18 8q12 0 15.5 -6t11.5 -6t11 7.5t3 13.5q0 4 -3.5 9.5t-7.5 5.5q-5 0 -10.5 -5t-13.5 -5q-12 0 -20 9.5t-8 20.5q0 13 3 25t7 23q-26 16 -40 52t-20 78
t-7 83.5t-1 70.5q0 16 1.5 41.5t5.5 54.5t11 57.5t19 51.5t28.5 37.5t39.5 14.5q27 0 43 -10.5t24.5 -28t11.5 -39t3 -42.5q0 -12 -5 -25t-20 -13q-12 0 -17.5 6.5t-7.5 15.5t-1.5 19t0.5 18q0 11 -2 17.5t-8 15.5q-14 -15 -23 -35.5t-13.5 -43t-6 -45.5t-1.5 -42
q0 -49 1.5 -97t6.5 -96q1 -7 3 -18.5t6 -22.5t10 -19t15 -8q12 0 17.5 15.5t9.5 34.5t11 34.5t22 15.5q11 0 17 -8t6 -19q0 -7 -1.5 -13.5t-3.5 -13.5q-3 -13 -7.5 -30.5t-12 -33t-19 -27.5t-26.5 -14q-5 0 -9 -0.5t-8 -0.5z" />
    <glyph glyph-name="egrave" unicode="&#xe8;" horiz-adv-x="287" 
d="M145 600q-13 0 -22 14q-4 6 -14.5 20.5t-21 30.5t-18.5 30t-8 19q0 11 8 19t19 8q8 0 14.5 -5.5t11.5 -12.5q4 -5 6.5 -10.5t6.5 -11.5q4 -5 11.5 -15t15 -20.5t13 -20.5t5.5 -16q0 -11 -8 -20t-19 -9zM141 2h-17q-36 0 -59.5 23.5t-37.5 57.5t-19.5 71.5t-5.5 65.5
q0 18 0.5 36t0.5 37q1 20 4 48t9.5 57.5t17 58.5t25.5 52t36 37t48 14t45 -12.5t29.5 -32t16 -43.5t4.5 -46q0 -26 -5.5 -39.5t-16 -19.5t-26.5 -7.5t-37 -2.5l-28 -2l-28 -2q-5 -26 -6.5 -53.5t-1.5 -53.5q0 -15 2 -44.5t8 -59t18 -51.5t33 -22q14 0 20.5 10t12.5 21.5
t13.5 21.5t22.5 10q12 0 18.5 -8.5t6.5 -19.5q0 -8 -3 -18.5t-7.5 -21.5t-10 -20.5t-10.5 -14.5q-16 -17 -33 -22t-39 -5zM149 500q-8 0 -15.5 -11t-13 -25.5t-9.5 -29t-5 -20.5q19 0 37.5 1.5t37.5 3.5q1 3 1 6.5v6.5q0 8 -1 19.5t-5 22.5t-10.5 18.5t-16.5 7.5z" />
    <glyph glyph-name="eacute" unicode="&#xe9;" horiz-adv-x="287" 
d="M130 585q-11 0 -18.5 9t-7.5 20q0 6 5.5 16t13 20.5t14.5 20.5t11 15q4 6 7 11.5t7 10.5q5 7 11.5 12.5t14.5 5.5q11 0 18.5 -8t7.5 -19q0 -5 -8 -19t-18.5 -30t-20.5 -30.5t-14 -20.5q-9 -14 -23 -14zM141 2h-17q-36 0 -59.5 23.5t-37.5 57.5t-19.5 71.5t-5.5 64.5
q0 19 0.5 37t0.5 37q1 20 4 48t9.5 57.5t17 58.5t25.5 52t36 37t48 14t45 -12.5t29.5 -32t16 -43.5t4.5 -46q0 -26 -5.5 -39.5t-16 -19.5t-26.5 -7.5t-37 -2.5l-28 -2t-28 -3q-5 -26 -6.5 -53t-1.5 -53q0 -15 2 -44.5t8 -59t18 -51.5t33 -22q14 0 20.5 10t12.5 21.5
t13.5 21.5t22.5 10q12 0 18.5 -8.5t6.5 -19.5q0 -8 -3 -18.5t-7.5 -21.5t-10 -20.5t-10.5 -14.5q-16 -17 -33 -22t-39 -5zM149 500q-8 0 -15.5 -11t-13 -25.5t-9.5 -29t-5 -21.5q37 1 75 6q1 3 1 6.5v6.5q0 7 -1 19t-5 22.5t-10.5 18.5t-16.5 8z" />
    <glyph glyph-name="ecircumflex" unicode="&#xea;" horiz-adv-x="287" 
d="M188 589q-12 0 -19 12q-9 14 -15.5 33t-12.5 35q-8 -17 -15.5 -33t-15.5 -33q-5 -14 -17 -14q-8 0 -20 7t-12 16q0 5 8 23.5t18 40.5t19.5 41t13.5 24t9 9t12 4q8 0 13.5 -5t8.5 -12q3 -6 11.5 -24.5t17 -39t15 -38t6.5 -21.5q0 -11 -7.5 -18t-17.5 -7zM141 2h-17
q-36 0 -59.5 23.5t-37.5 57.5t-19.5 71.5t-5.5 65.5q0 18 0.5 36.5t0.5 36.5q1 20 4 48t9.5 57.5t17 58.5t25.5 52t36 37t48 14t45 -12.5t29.5 -32t16 -43.5t4.5 -46q0 -26 -5.5 -39.5t-16 -19.5t-26.5 -7.5t-37 -2.5l-28 -2l-28 -2q-5 -26 -6.5 -53.5t-1.5 -53.5
q0 -15 2 -44.5t8 -59t18 -51.5t33 -22q14 0 20.5 10t12.5 21.5t13.5 21.5t22.5 10q12 0 18.5 -8.5t6.5 -19.5q0 -8 -3 -18.5t-7.5 -21.5t-10 -20.5t-10.5 -14.5q-16 -17 -33 -22t-39 -5zM149 501q-8 0 -15.5 -11t-13 -26t-9.5 -29.5t-5 -20.5q19 0 37.5 1.5t37.5 3.5
q1 4 1 14q0 7 -1 19t-5 22.5t-10.5 18.5t-16.5 8z" />
    <glyph glyph-name="edieresis" unicode="&#xeb;" horiz-adv-x="287" 
d="M187 595q-16 0 -24.5 13t-8.5 27q0 17 9.5 28t26.5 11q15 0 25.5 -11.5t10.5 -25.5q0 -17 -11 -29.5t-28 -12.5zM87 595q-16 0 -24 13t-8 27q0 17 9.5 28t26.5 11q14 0 24.5 -11.5t10.5 -25.5q0 -17 -11 -29.5t-28 -12.5zM141 2h-17q-36 0 -59.5 23.5t-37.5 57t-19.5 71
t-5.5 65.5q0 18 0.5 36.5t0.5 36.5q1 20 4 48t9.5 57.5t17 58.5t25.5 51.5t36 36.5t48 14t45 -12.5t29 -32t16 -43t5 -45.5q0 -26 -5.5 -39.5t-16 -19.5t-26.5 -7.5t-37 -2.5l-28 -2l-28 -2q-5 -26 -6.5 -53.5t-1.5 -53.5q0 -15 2 -44.5t8 -59t18 -51.5t33 -22q14 0 20.5 10
t12.5 22t13.5 22t22.5 10q12 0 18.5 -9t6.5 -20q0 -7 -3 -17.5t-7.5 -21.5t-10 -20.5t-10.5 -14.5q-16 -17 -33 -22t-39 -5zM149 499q-8 0 -15.5 -11t-13 -25.5t-9.5 -29t-5 -21.5q37 1 75 6q1 3 1 6.5v6.5q0 8 -1 19.5t-5 22.5t-10.5 18.5t-16.5 7.5z" />
    <glyph glyph-name="igrave" unicode="&#xec;" horiz-adv-x="188" 
d="M87 587q-12 0 -21 14q-4 6 -13 20.5t-18.5 30.5t-17 30t-7.5 19q0 10 7 18.5t18 8.5q8 0 13.5 -5.5t9.5 -12.5q4 -5 6.5 -11t6.5 -11q4 -6 10.5 -15.5t13 -20t11.5 -20.5t5 -16q0 -11 -6.5 -20t-17.5 -9zM118 35q0 -20 -12.5 -27.5t-30.5 -7.5q-21 0 -29.5 11t-8.5 31
q0 38 1.5 75.5t1.5 75.5l1 326q0 19 7.5 27.5t27.5 8.5q5 0 9.5 -0.5t9.5 -1.5q16 -2 20.5 -10.5t4.5 -22.5q0 -40 0.5 -79.5t0.5 -79.5q0 -82 -1.5 -163t-1.5 -163z" />
    <glyph glyph-name="iacute" unicode="&#xed;" horiz-adv-x="168" 
d="M41 603q-11 0 -18 9t-7 20q0 6 5 16t11.5 20.5t13.5 20t11 15.5q3 5 6 11t6 11q4 7 10 12.5t14 5.5q11 0 18 -8.5t7 -18.5q0 -5 -7.5 -19t-17 -30t-19 -30.5t-13.5 -20.5q-7 -14 -20 -14zM83 35q0 -20 -12.5 -27.5t-30.5 -7.5q-21 0 -29.5 11t-8.5 31q0 38 1.5 75.5
t2.5 75.5v326q0 20 7.5 28t27.5 8h10t10 -1q16 -3 20 -11t4 -23q0 -40 1 -79.5t1 -79.5q0 -82 -2 -163t-2 -163z" />
    <glyph glyph-name="icircumflex" unicode="&#xee;" horiz-adv-x="168" 
d="M126 589q-10 0 -17 12q-9 14 -15 33t-12 35q-8 -17 -14.5 -33t-14.5 -33q-5 -14 -17 -14q-8 0 -18.5 7t-10.5 16q0 5 7.5 23.5t17 40.5t18.5 41t12 24q4 5 8.5 9t11.5 4q8 0 13 -5.5t8 -11.5t11 -24.5t16 -39t14.5 -38t6.5 -21.5q0 -10 -7.5 -17.5t-17.5 -7.5zM112 35
q0 -20 -13 -27.5t-31 -7.5q-22 0 -30.5 11t-8.5 31q0 38 1.5 75.5t1.5 75.5l1 327q0 20 8 28t28 8q5 0 10 -0.5t10 -1.5q16 -3 20.5 -11t4.5 -23q0 -40 1 -79.5t1 -79.5q0 -81 -2 -162.5t-2 -163.5z" />
    <glyph glyph-name="idieresis" unicode="&#xef;" horiz-adv-x="168" 
d="M121 605q-15 0 -23 13t-8 27q0 17 9 28t26 11q14 0 24 -11.5t10 -25.5q0 -17 -10.5 -29.5t-27.5 -12.5zM25 605q-15 0 -23 13t-8 27q0 17 9 28t26 11q14 0 24 -11.5t10 -25.5q0 -17 -10.5 -29.5t-27.5 -12.5zM113 35q0 -20 -14 -27.5t-31 -7.5q-22 0 -31 10.5t-9 31.5
q0 38 1.5 75.5t1.5 75.5l1 325q0 20 8 28t28 8q5 0 10.5 -0.5t10.5 -1.5q16 -2 21 -10t5 -23q0 -40 0.5 -79.5t0.5 -79.5q0 -81 -1.5 -162t-1.5 -163z" />
    <glyph glyph-name="eth" unicode="&#xf0;" horiz-adv-x="241" 
d="M75 -1q-26 0 -40 18.5t-21 44t-8.5 52.5t-1.5 45q0 39 4.5 80.5t15 82t28 78t43.5 68.5q-5 18 -10 36.5t-13 35.5q-5 -8 -12.5 -21t-19.5 -13q-11 0 -17.5 9t-6.5 20q0 6 4 14.5t9 17.5t11 17.5t9 13.5q-3 8 -10.5 25.5t-15 36.5t-13 35t-5.5 22t4.5 13t10.5 13.5t13 11
t13 4.5q10 0 15 -5.5t9 -13.5q9 -20 15.5 -40.5t14.5 -40.5q4 5 10.5 11.5t12.5 6.5q11 0 20 -10.5t9 -21.5q0 -8 -11 -22.5t-16 -20.5q31 -79 45 -157.5t14 -163.5q0 -27 -2 -65t-9 -76t-20.5 -71.5t-35.5 -51.5q-9 -7 -20 -12.5t-22 -5.5zM108 392q-34 -60 -45 -120.5
t-11 -127.5v-19t1.5 -28.5t5 -26t9.5 -11.5q10 0 16.5 14t11 32.5t7 36t2.5 24.5q2 30 5 59.5t3 59.5q0 26 -1.5 53t-3.5 54z" />
    <glyph glyph-name="ntilde" unicode="&#xf1;" 
d="M144 647l3.5 7t3.5 6q11 24 11 49q0 11 4.5 21t17.5 10q12 0 18 -7.5t6 -18.5q0 -13 -3.5 -33t-10.5 -38.5t-19 -32t-28 -13.5q-17 0 -27.5 6.5t-18 16.5t-13 22.5t-12.5 23.5q-2 -5 -4.5 -13.5t-6.5 -17t-9 -14.5t-12 -6q-11 0 -16.5 9t-5.5 20q0 10 3.5 24t10.5 26
t17 20.5t23 8.5q14 0 24 -11t18 -24.5t14 -25.5t12 -15zM218 159q0 -30 0.5 -59.5t0.5 -59.5q0 -14 -5 -28.5t-24 -14.5q-17 0 -22.5 12t-5.5 26q0 72 1 142.5t1 141.5q0 9 0.5 36.5t-1.5 56t-7.5 51t-18.5 22.5q-16 0 -26.5 -15.5t-17 -36.5t-9 -42.5t-2.5 -33.5
q0 -79 3 -157t3 -157q0 -20 -7.5 -32.5t-30.5 -12.5t-30.5 11.5t-8.5 32.5q-2 54 -2.5 107.5t-1.5 107.5q0 101 -3 203q-1 17 -1.5 35t-0.5 35q0 3 1 6t2 5l12 9h4q6 0 11.5 2t11.5 2q15 0 22.5 -9.5t9.5 -22.5q11 14 25 24t33 10q15 0 29 -8q21 -10 31.5 -29t15 -41.5
t5.5 -46.5t3 -43q3 -36 3 -72q0 -39 -1.5 -78.5t-1.5 -78.5z" />
    <glyph glyph-name="ograve" unicode="&#xf2;" horiz-adv-x="295" 
d="M123 590q-8 0 -13 4.5t-9 9.5q-4 6 -14.5 20.5t-21 30.5t-18.5 30t-8 19q0 11 8 19t19 8q8 0 14.5 -5t11.5 -12q4 -5 7 -11t6 -11q4 -6 11.5 -15.5t15 -20.5t13 -21t5.5 -16q0 -11 -8 -20t-19 -9zM128 0q-27 0 -46.5 11.5t-33 29.5t-21 40.5t-11.5 45.5q-7 42 -10.5 84.5
t-3.5 84.5q0 22 2.5 56t8.5 69t17 65.5t28 46.5q21 21 52 21q34 0 55.5 -23t36.5 -50q13 -24 21 -52.5t11.5 -58.5t4.5 -60t1 -57q0 -50 -10.5 -101t-30.5 -96q-10 -23 -26.5 -39.5t-44.5 -16.5zM125 485q-12 0 -18.5 -27t-9.5 -62t-3.5 -68t-0.5 -44q0 -18 1.5 -50t6 -65.5
t13.5 -61.5t24 -38q9 3 16.5 21.5t13.5 42t10 46t6 31.5q3 27 3 53q0 24 -0.5 53t-5 57.5t-14 54.5t-27.5 45q-2 2 -7.5 7t-7.5 5z" />
    <glyph glyph-name="oacute" unicode="&#xf3;" horiz-adv-x="295" 
d="M101 593q-12 0 -19.5 8.5t-7.5 19.5q0 6 5.5 16.5t13 21t14.5 20.5t11 15t7 11t7 11q5 7 11.5 12.5t14.5 5.5q11 0 18.5 -8t7.5 -19q0 -5 -8 -19t-18.5 -30t-20.5 -30.5t-14 -20.5q-9 -14 -22 -14zM128 0q-27 0 -46.5 11.5t-33 29.5t-21 40.5t-11.5 45.5
q-7 42 -10.5 84.5t-3.5 84.5q0 23 2.5 57t8.5 68.5t17 65t28 46.5q10 11 24 16t28 5q34 0 55.5 -23t36.5 -50q13 -24 21 -52.5t11.5 -58.5t4.5 -60t1 -57q0 -50 -10.5 -101t-30.5 -96q-10 -23 -26.5 -39.5t-44.5 -16.5zM125 485q-12 0 -18.5 -27t-9.5 -62t-3.5 -68t-0.5 -44
q0 -18 1.5 -50t6 -65.5t13.5 -61.5t24 -38q9 3 16.5 21.5t13.5 42t10 46t6 31.5q3 27 3 53q0 24 -0.5 53t-5 57.5t-14 54.5t-27.5 45q-2 2 -7.5 7t-7.5 5z" />
    <glyph glyph-name="ocircumflex" unicode="&#xf4;" horiz-adv-x="295" 
d="M160 579q-7 0 -11 3.5t-8 8.5q-9 14 -15.5 33t-12.5 35q-8 -17 -15.5 -33t-15.5 -33q-5 -14 -17 -14q-8 0 -19.5 7t-11.5 16q0 5 8 23.5t18 40.5t19.5 41t12.5 24q4 5 9 9t12 4q8 0 13.5 -5t8.5 -12q3 -6 11.5 -24.5t17 -39t15 -38t6.5 -21.5q0 -10 -7.5 -17.5
t-17.5 -7.5zM128 0q-27 0 -46.5 11.5t-33 29.5t-21 40.5t-11.5 45.5q-7 42 -10.5 84.5t-3.5 84.5q0 23 2.5 57t8.5 68.5t17 65t28 46.5q10 11 24 16t28 5q35 0 56 -22.5t36 -50.5q13 -24 21 -52.5t11.5 -58.5t4.5 -60t1 -57q0 -49 -10.5 -100.5t-30.5 -96.5
q-10 -23 -26.5 -39.5t-44.5 -16.5zM125 485q-12 0 -18.5 -27t-9.5 -62t-3.5 -68t-0.5 -44q0 -17 1.5 -49t6 -66t13.5 -62t24 -38q9 3 16.5 21.5t13.5 42t10 46t6 31.5q3 27 3 53q0 24 -0.5 53t-5 57.5t-14 54.5t-27.5 45q-2 2 -7.5 7t-7.5 5z" />
    <glyph glyph-name="otilde" unicode="&#xf5;" horiz-adv-x="295" 
d="M155 637l3.5 7t3.5 6q11 24 11 49q0 11 5 21t17 10t18.5 -7.5t6.5 -18.5q0 -13 -3.5 -33t-11 -38.5t-19.5 -32t-28 -13.5q-17 0 -27.5 6.5t-18 17t-13 22.5t-12.5 24q-2 -5 -4.5 -14t-6.5 -17.5t-9.5 -14.5t-12.5 -6q-11 0 -16.5 9t-5.5 20q0 10 3.5 24t10.5 26t17 20.5
t23 8.5q14 0 24.5 -11t18.5 -24.5t14 -25.5t12 -15zM128 0q-27 0 -46.5 11.5t-33 29.5t-21 40.5t-11.5 45.5q-7 42 -10.5 84.5t-3.5 84.5q0 22 2.5 56t8.5 69t17 65.5t28 46.5q10 10 24 15t28 5q35 0 56 -22.5t36 -49.5q13 -24 21 -52.5t11.5 -58.5t4.5 -60t1 -57
q0 -50 -10.5 -101t-30.5 -96q-10 -23 -26.5 -39.5t-44.5 -16.5zM125 485q-12 0 -18.5 -27t-9.5 -62t-3.5 -68t-0.5 -44q0 -18 1.5 -50t6 -65.5t13.5 -61.5t24 -38q9 3 16.5 21.5t13.5 42t10 46t6 31.5q3 27 3 53q0 24 -0.5 53t-5 57.5t-14 54.5t-27.5 45q-2 2 -7.5 7t-7.5 5
z" />
    <glyph glyph-name="odieresis" unicode="&#xf6;" horiz-adv-x="295" 
d="M155 593q-16 0 -24 13t-8 27q0 17 9.5 28t26.5 11q14 0 24.5 -11.5t10.5 -25.5q0 -17 -11 -29.5t-28 -12.5zM46 593q-16 0 -24 13t-8 27q0 17 9.5 28t26.5 11q14 0 24.5 -11.5t10.5 -25.5q0 -17 -10.5 -29.5t-28.5 -12.5zM128 0q-27 0 -46.5 11.5t-33 29.5t-21 40.5
t-11.5 45.5q-7 42 -10.5 84t-3.5 84q0 23 2.5 56.5t8.5 68t17 65t28 47.5q10 10 24 15t28 5q35 0 56 -22.5t36 -49.5q13 -24 21 -52.5t11.5 -58.5t4.5 -60t1 -57q0 -49 -10.5 -100t-30.5 -96q-10 -23 -26.5 -39.5t-44.5 -16.5zM125 483q-8 0 -13.5 -12.5t-9 -32.5
t-5.5 -43.5t-3 -46t-1 -40v-24.5q0 -18 1.5 -50t6 -65.5t13.5 -62t24 -37.5q9 3 16.5 21.5t13.5 42t10 45.5t6 32q3 25 3 53q0 24 -0.5 52.5t-5 57t-14 54.5t-27.5 45q-2 2 -7.5 6.5t-7.5 4.5z" />
    <glyph glyph-name="divide" unicode="&#xf7;" horiz-adv-x="280" 
d="M107 85q-15 0 -23.5 12t-8.5 26q0 17 9.5 27t26.5 10q14 0 24.5 -10.5t10.5 -24.5q0 -17 -11 -28.5t-28 -11.5zM221 200q0 -3 -3 -4q-5 -8 -17 -8q-29 0 -58 -1t-58 -1q-16 0 -31 0.5t-31 0.5q-14 0 -18.5 6t-4.5 14q0 13 5 17.5t22 4.5q43 0 85.5 0.5t85.5 0.5
q21 0 24 -16v-9q0 -3 -1 -5zM107 261q-15 0 -23.5 12t-8.5 26q0 17 9.5 27t26.5 10q14 0 24.5 -10.5t10.5 -24.5q0 -17 -11 -28.5t-28 -11.5z" />
    <glyph glyph-name="oslash" unicode="&#xf8;" horiz-adv-x="295" 
d="M116 -2q-15 0 -31 8q-2 -7 -4.5 -17t-6.5 -19.5t-10.5 -16.5t-15.5 -7q-14 0 -21.5 10t-7.5 23q0 17 6.5 37t10.5 37q-12 22 -19 52.5t-11 63t-5.5 64t-1.5 56.5t2 58.5t8 67.5t16.5 64.5t26.5 49.5q10 11 25 16t29 5q17 0 32 -7.5t26 -19.5q4 8 10 13t14 5q14 0 22 -9
t8 -22q0 -12 -5 -27t-8 -26q19 -48 23.5 -99t4.5 -102t-10 -102t-30 -98q-11 -26 -29 -42t-48 -16zM91 253q14 50 27.5 98.5t24.5 99.5q-9 16 -24 27q-10 0 -15.5 -27t-8.5 -61.5t-3.5 -67t-0.5 -44.5v-25zM174 342q-8 -29 -15.5 -59t-15.5 -59q-8 -30 -17 -59.5t-15 -58.5
q3 -8 7.5 -19t12.5 -16q8 3 15.5 21.5t13 41.5t9 44.5t5.5 30.5q3 22 3 46q0 22 -0.5 43.5t-2.5 43.5z" />
    <glyph glyph-name="ugrave" unicode="&#xf9;" horiz-adv-x="335" 
d="M126 589q-8 0 -13 4.5t-10 9.5q-4 6 -14 20.5t-20.5 30.5t-18.5 30t-8 19q0 11 7.5 19t18.5 8q9 0 15.5 -5.5t10.5 -11.5q4 -5 7 -11t7 -11q4 -6 11.5 -15.5t15 -20.5t13 -21t5.5 -16q0 -11 -8 -20t-19 -9zM226 5q-20 0 -29.5 14.5t-12.5 32.5q-11 -21 -28.5 -35.5
t-42.5 -14.5q-46 0 -68 40q-14 25 -22 59t-12.5 71t-6 73t-1.5 64t1 55t2 55q0 11 0.5 26.5t1.5 32t1.5 31.5t2.5 25q2 11 8 20t19 9q15 0 24.5 -11.5t9.5 -25.5q0 -13 -1 -25.5t-2 -26.5q-2 -44 -3 -87.5t-1 -88.5q0 -19 0.5 -52.5t4.5 -69t12.5 -65t24.5 -41.5q2 -2 3 -2
q10 0 17 13t11.5 32.5t7.5 44t4.5 47t2.5 41t1 26.5q1 33 3.5 66t2.5 67v96q0 6 -1 12t-1 12q0 15 10 24.5t25 9.5q7 0 13 -1.5t13 -3.5q21 -4 30.5 -12.5t9.5 -31.5q0 -9 -0.5 -18t-1.5 -18q-2 -50 -3 -99t-1 -99v-62.5t2 -62.5q1 -23 5 -50t4 -49q0 -17 -10 -32t-29 -15z
" />
    <glyph glyph-name="uacute" unicode="&#xfa;" horiz-adv-x="335" 
d="M115 597q-11 0 -18.5 9t-7.5 20q0 6 5.5 16t13 20.5t14.5 20.5t11 15q4 6 7 11.5t7 10.5q5 7 11.5 12.5t14.5 5.5q11 0 19 -8t8 -19q0 -5 -8 -19t-18.5 -30t-21 -30.5t-14.5 -20.5q-9 -14 -23 -14zM226 5q-20 0 -29.5 14.5t-12.5 32.5q-11 -21 -28.5 -35.5t-42.5 -14.5
q-46 0 -68 40q-14 25 -22 59t-12.5 71t-6 73t-1.5 64t1 55t2 55q0 11 0.5 26.5t1.5 32t1.5 31.5t2.5 25q2 11 8 20t19 9q15 0 24.5 -11t9.5 -26q0 -13 -1 -25.5t-2 -26.5q-2 -44 -3 -87.5t-1 -87.5q0 -20 0.5 -53.5t4.5 -69t12.5 -65t24.5 -41.5q2 -2 3 -2q10 0 17 13
t11.5 32.5t7.5 44t4.5 47t2.5 41t1 26.5q1 33 3.5 66t2.5 67v96q0 6 -1 12t-1 12q0 15 10 24.5t25 9.5q7 0 13 -1.5t13 -3.5q21 -4 30.5 -12t9.5 -31q0 -10 -0.5 -19t-1.5 -18q-2 -50 -3 -99t-1 -99v-62t2 -63q1 -23 5 -50t4 -49q0 -17 -10 -32t-29 -15z" />
    <glyph glyph-name="ucircumflex" unicode="&#xfb;" horiz-adv-x="335" 
d="M170 599q-11 0 -18 12q-10 14 -16 33t-12 35q-8 -17 -16 -33t-16 -33q-5 -14 -17 -14q-8 0 -20 7t-12 16q0 5 8 23.5t18.5 40.5t20 41t13.5 24t8.5 9t11.5 4q8 0 13.5 -5t9.5 -12q3 -6 11 -24.5t17 -39t15.5 -38t6.5 -21.5q0 -11 -8 -18t-18 -7zM226 5q-20 0 -29.5 14.5
t-12.5 32.5q-11 -21 -28.5 -35.5t-42.5 -14.5q-46 0 -68 40q-14 25 -22 59t-12.5 71t-6 73t-1.5 64t1 55.5t2 54.5q0 12 0.5 27.5t1.5 31.5t1.5 31t2.5 26t8 20t19 9q15 0 24.5 -11.5t9.5 -25.5t-1 -26.5t-2 -25.5q-2 -45 -3 -88t-1 -88q0 -19 0.5 -53t4.5 -69t12.5 -65
t24.5 -42q1 -1 3 -1q10 0 17 12.5t11.5 32.5t7.5 44t4.5 46.5t2.5 41t1 26.5q1 33 3.5 66.5t2.5 66.5v97q0 6 -1 11.5t-1 11.5q0 16 10 25.5t25 9.5q7 0 13 -2t13 -3q21 -4 30.5 -12.5t9.5 -31.5q0 -9 -0.5 -18.5t-1.5 -18.5q-2 -50 -3 -99t-1 -99v-62t2 -62q1 -24 5 -51
t4 -49q0 -17 -10 -32t-29 -15z" />
    <glyph glyph-name="udieresis" unicode="&#xfc;" horiz-adv-x="335" 
d="M174 586q-16 0 -24.5 13t-8.5 27q0 17 10 28t27 11q14 0 24.5 -11.5t10.5 -25.5q0 -17 -11 -29.5t-28 -12.5zM83 586q-16 0 -24.5 13t-8.5 27q0 17 10 28t27 11q14 0 24.5 -11.5t10.5 -25.5q0 -17 -11 -29.5t-28 -12.5zM226 5q-20 0 -29.5 14.5t-12.5 32.5
q-11 -21 -28.5 -35.5t-42.5 -14.5q-46 0 -68 40q-14 24 -22 58t-12.5 71t-6 73t-1.5 64t1 55t2 55q0 11 0.5 26.5t1.5 31.5t1.5 31t2.5 26t8 20t19 9q15 0 24.5 -11.5t9.5 -25.5q0 -13 -1 -26l-2 -26q-2 -44 -3 -87.5t-1 -87.5q0 -19 0.5 -52.5t4.5 -69t12.5 -65t24.5 -41.5
q2 -2 3 -2q10 0 17 12.5t11.5 32.5t7.5 44t4.5 46.5t2.5 41t1 26.5q1 33 3.5 66t2.5 67v96q0 6 -1 11.5t-1 11.5q0 16 10 25.5t25 9.5q7 0 13 -2t13 -3q21 -4 30.5 -12.5t9.5 -31.5q0 -9 -0.5 -18t-1.5 -19q-2 -49 -3 -98t-1 -99v-62t2 -62q1 -23 5 -50t4 -49q0 -17 -10 -32
t-29 -15z" />
    <glyph glyph-name="yacute" unicode="&#xfd;" horiz-adv-x="324" 
d="M115 576q-11 0 -18.5 9t-7.5 20q0 6 5.5 16t13 21t14.5 20.5t11 15.5q4 5 7 11t7 11q5 7 11.5 12.5t14.5 5.5q11 0 19 -8t8 -19q0 -5 -8 -19.5t-18.5 -30.5t-21 -30.5t-14.5 -20.5q-9 -14 -23 -14zM111 -255q-9 0 -18.5 1t-18 4.5t-13.5 10t-5 18.5q0 19 4 36.5t9 35.5
q5 20 8.5 39.5t7.5 39.5q2 14 5 26.5t3 26.5q0 29 -6 56.5t-13 56.5q-2 8 -2.5 15.5t-2.5 15.5q-4 20 -8.5 40t-8.5 40q-11 51 -18.5 101t-17.5 101q-5 23 -9.5 47.5t-4.5 48.5q0 12 7.5 22.5t20.5 10.5q14 0 21.5 -11t9.5 -24q11 -91 25.5 -173.5t34.5 -171.5q5 34 9.5 68
t10.5 68q5 22 7 44t5 45q4 26 8 50.5t9 49.5q2 11 4 21t4 23q2 7 4.5 12t8.5 5t16.5 -2t21.5 -5t21 -6.5t15 -6.5q3 -5 3 -9q0 -15 -4.5 -31t-7.5 -30q-5 -23 -8.5 -46.5t-8.5 -46.5l-98 -588q-2 -12 -9.5 -20t-20.5 -8z" />
    <glyph glyph-name="thorn" unicode="&#xfe;" horiz-adv-x="221" 
d="M76 -11v-122q0 -9 0.5 -17.5t0.5 -17.5q0 -22 -7.5 -41.5t-33.5 -19.5q-17 0 -25 11.5t-8 26.5q0 11 1 23t1 23q0 19 -0.5 37.5t-0.5 36.5q0 44 1 87t1 87q0 16 -0.5 31.5t-0.5 30.5q0 58 1 115t1 114v111t1 112q1 2 0.5 3t0.5 2q2 14 15.5 20.5t25.5 6.5q18 0 25.5 -9.5
t7.5 -26.5v-100.5t-1 -99.5h8q17 0 29.5 -7.5t23.5 -19.5q21 -25 28 -57t7 -64q0 -16 -2 -41.5t-6 -54.5t-11 -58.5t-18 -54.5t-25 -43t-33 -23zM74 53q13 12 23 37.5t16.5 55t10 58.5t3.5 47q0 25 -4 53.5t-25 46.5q0 2 -3 2q-6 0 -9.5 -4.5t-5 -11t-1.5 -13v-10.5
q0 -38 -0.5 -77t-1.5 -77q0 -27 -1.5 -54t-1.5 -53z" />
    <glyph glyph-name="ydieresis" unicode="&#xff;" horiz-adv-x="324" 
d="M186 590q-16 0 -24.5 13t-8.5 27q0 17 10 28t27 11q14 0 24.5 -11.5t10.5 -25.5q0 -17 -11 -29.5t-28 -12.5zM76 590q-16 0 -24 13t-8 27q0 17 9.5 28t26.5 11q14 0 25 -11.5t11 -25.5q0 -17 -11 -29.5t-29 -12.5zM111 -255q-9 0 -18.5 1t-18 4.5t-13.5 10t-5 18.5
q0 19 4 36.5t9 35.5q5 20 8.5 39.5t7.5 39.5q2 14 5 26.5t3 26.5q0 29 -6 56.5t-13 56.5q-2 8 -2.5 15.5t-2.5 15.5q-4 20 -8.5 40t-8.5 40q-11 51 -18.5 101t-17.5 101q-5 23 -9.5 47.5t-4.5 48.5q0 12 7.5 22.5t20.5 10.5q14 0 21.5 -11t9.5 -24q11 -91 25.5 -173.5
t34.5 -171.5q5 34 9.5 68t10.5 68q5 22 7 44t5 45q4 26 8 50.5t9 49.5q2 11 4 21t4 23q2 7 4.5 12t8.5 5t16.5 -2t21.5 -5t21 -6.5t15 -6.5q3 -5 3 -9q0 -15 -4.5 -31t-7.5 -30q-5 -23 -8.5 -46.5t-8.5 -46.5l-98 -588q-2 -12 -9.5 -20t-20.5 -8z" />
    <glyph glyph-name="Amacron" unicode="&#x100;" horiz-adv-x="318" 
d="M59 810q-11 0 -19 8.5t-8 20.5q0 28 28 28h163q11 0 17.5 -8t6.5 -19q0 -16 -9 -22t-23 -7q-23 -1 -45 -0.5t-44 0.5q-17 0 -33.5 -0.5t-33.5 -0.5zM241 2q-11 0 -18 6q-5 4 -7 9t-4 11q-8 30 -11 61t-6 61q-4 37 -9 73.5t-10 73.5q-12 -1 -24.5 -1h-25.5q-4 -38 -7 -77
t-6 -77q-2 -29 -4.5 -57.5t-2.5 -57.5q0 -10 -4 -15t-10.5 -7.5t-14 -3t-14.5 -0.5h-18.5t-19.5 2.5t-15.5 8.5t-6.5 18t1.5 24.5t3.5 24.5q4 37 8 73.5t8 73.5q13 127 25.5 252t26.5 252q1 9 4 17t12 13q8 3 21 3h21q15 0 27.5 -4.5t16.5 -21.5q5 -20 7.5 -41.5t5.5 -41.5
q6 -45 11 -88.5t12 -88.5q5 -31 7 -62t7 -62l24 -198q3 -20 5.5 -40.5t5.5 -40.5q2 -12 4.5 -24t2.5 -24q0 -13 -9 -18.5t-20 -5.5zM147 528q-4 -43 -7.5 -86t-7.5 -86q9 -1 18.5 -1h18.5q-5 44 -10.5 87t-11.5 86z" />
    <glyph glyph-name="amacron" unicode="&#x101;" horiz-adv-x="355" 
d="M74 590q-11 0 -19 8t-8 20q0 28 28 28h163q11 0 17.5 -8t6.5 -18q0 -17 -9 -23t-23 -6q-23 -2 -44.5 -1t-44.5 1q-17 0 -33.5 -0.5t-33.5 -0.5zM231 1q-3 -1 -10 -1q-12 0 -18.5 7.5t-9.5 18.5q-26 -25 -66 -25q-11 0 -19.5 1t-18.5 6q-39 23 -58 65q-1 2 -1.5 4t-1.5 4
q-10 18 -14 35q-6 20 -8.5 41t-2.5 42q0 8 0.5 16t1.5 16q3 26 13 54.5t27 52.5t41 39.5t54 15.5q25 0 46 -12q0 8 -0.5 27t-3 38.5t-8.5 34.5t-18 15q-16 0 -27 -9.5t-18.5 -23.5t-13 -29t-10.5 -27l-14 -7q-14 3 -22 10.5t-8 21.5q0 2 0.5 4.5t0.5 5.5q4 19 12 39.5
t21 37.5t30.5 28t40.5 11q29 0 50 -12t34.5 -31.5t21 -44.5t9.5 -50q5 -74 7.5 -148t2.5 -149q0 -23 1 -46t1 -46q0 -20 -13.5 -26t-30.5 -4zM133 329q-12 0 -22 -7.5t-18 -18.5t-13.5 -23t-9.5 -22q-5 -14 -6.5 -28t-1.5 -28q0 -34 5.5 -64.5t31.5 -56.5q4 -3 11.5 -10
t12.5 -7q15 0 27 10t21 25t13.5 31.5t4.5 29.5v145q0 4 -7.5 8t-17 7.5t-18.5 6t-13 2.5z" />
    <glyph glyph-name="Abreve" unicode="&#x102;" horiz-adv-x="318" 
d="M128 794q-25 0 -41.5 10t-26.5 25.5t-14.5 36t-4.5 41.5q0 13 5.5 27.5t21.5 14.5q14 0 21 -8t7 -22q0 -5 -0.5 -9.5t-0.5 -9.5q0 -20 5.5 -34t29.5 -14q12 0 19 7t11 17t5 21.5t1 20.5q0 11 4 23.5t19 12.5q17 0 24.5 -11.5t7.5 -26.5q0 -10 -1 -21t-3 -21
q-8 -31 -31.5 -55.5t-57.5 -24.5zM241 2q-11 0 -18 6q-5 4 -7 9t-4 11q-8 30 -11 61l-6 62q-4 37 -9 73t-10 73h-50q-4 -39 -7 -77.5t-6 -77.5q-2 -29 -4.5 -57.5t-2.5 -57.5q0 -10 -4 -15t-10.5 -7.5t-14 -3t-14.5 -0.5h-18.5t-19.5 2.5t-15.5 8.5t-6.5 18t1.5 24.5
t3.5 24.5l8 74l8 74q13 127 25.5 252t26.5 252q1 9 4 17.5t12 12.5q8 3 21 3.5t21 0.5q15 0 27.5 -4.5t16.5 -21.5q5 -20 7.5 -41.5t5.5 -42.5q6 -45 11 -88.5t12 -88.5q5 -32 7 -62.5t7 -62.5l24 -198q3 -20 5.5 -40t5.5 -40q2 -13 4.5 -25t2.5 -24q0 -13 -9 -18.5
t-20 -5.5zM147 529q-4 -43 -7.5 -86t-7.5 -87h37q-5 44 -10.5 87t-11.5 86z" />
    <glyph glyph-name="abreve" unicode="&#x103;" horiz-adv-x="355" 
d="M151 597q-25 0 -41.5 9.5t-26.5 25.5t-14 36.5t-4 41.5q0 12 5 26.5t21 14.5q14 0 21.5 -8t7.5 -22q0 -5 -0.5 -9t-0.5 -9q0 -20 5.5 -34.5t28.5 -14.5q12 0 19.5 7t11.5 17t5 21.5t1 20.5q0 11 4 23.5t19 12.5q17 0 24.5 -11t7.5 -27q0 -10 -1 -20.5t-4 -20.5
q-8 -31 -31.5 -55.5t-57.5 -24.5zM231 1q-3 -1 -10 -1q-12 0 -18.5 7.5t-9.5 18.5q-26 -25 -66 -25q-11 0 -19.5 1t-18.5 6q-39 23 -58 66q-2 4 -3 7q-5 9 -8.5 17.5t-5.5 18.5q-6 20 -8.5 41t-2.5 42q0 8 0.5 16t1.5 16q3 26 13 54.5t27 52.5t41 40t54 16q25 0 46 -12
q0 8 -0.5 27t-3 39t-8.5 35t-18 15q-16 0 -27 -9.5t-18.5 -23.5t-13 -29.5t-10.5 -27.5l-14 -7q-14 3 -22 10.5t-8 21.5q0 2 0.5 4.5t0.5 4.5q4 19 12 40t21 38t30.5 28t40.5 11q29 0 50 -12t34.5 -31.5t21 -44.5t9.5 -50q5 -75 7.5 -149t2.5 -149q0 -23 1 -46.5t1 -46.5
q0 -20 -13.5 -26t-30.5 -4zM133 330q-12 0 -22 -7.5t-18 -18.5t-13.5 -23t-9.5 -22q-5 -14 -6.5 -28t-1.5 -28q0 -35 5.5 -65.5t31.5 -55.5q4 -4 11.5 -11t12.5 -7q15 0 27 10.5t21 25.5t13.5 31.5t4.5 28.5v147q0 3 -7.5 7t-17 7.5t-18.5 6t-13 2.5z" />
    <glyph glyph-name="Aogonek" unicode="&#x104;" horiz-adv-x="329" 
d="M250 -129q-35 0 -52.5 24.5t-17.5 56.5q0 21 8.5 41t23.5 35q-7 30 -10 61t-6 61q-4 37 -9 73.5t-10 73.5q-13 -1 -25.5 -1h-25.5q-5 -38 -7.5 -77t-6.5 -77l-4 -58t-2 -58q0 -10 -4 -15t-11 -7.5t-15 -3t-15 -0.5h-18.5t-20 2.5t-16 8.5t-6.5 18q0 6 1 12l2 12
q6 43 10 86t9 86q10 98 20 194.5t20 194.5q3 29 6 59t7 60q2 20 12.5 27t29.5 7h18.5t18.5 -2.5t15.5 -8t9.5 -16.5q8 -35 11.5 -70.5t8.5 -70.5q4 -31 7.5 -61t8.5 -59q5 -32 7.5 -63t6.5 -63q6 -50 12.5 -99t12.5 -100q2 -20 4.5 -40t5.5 -40q2 -14 5 -27t3 -27
q0 -12 -6 -17.5t-13 -11.5t-13 -14.5t-6 -26.5q0 -10 3.5 -17.5t14.5 -7.5q8 0 14.5 3t14.5 3q11 0 17.5 -7.5t6.5 -18.5q0 -9 -6 -15.5t-14.5 -10.5t-18 -6t-16.5 -2zM147 531q-4 -44 -7.5 -87.5t-7.5 -87.5h38q-5 44 -11 87t-12 88z" />
    <glyph glyph-name="aogonek" unicode="&#x105;" horiz-adv-x="344" 
d="M258 -141q-35 0 -53 25t-18 58t19 62q-6 0 -9 5.5t-4 10.5q-29 -24 -65 -24q-34 0 -57.5 20t-38.5 49.5t-21.5 63.5t-6.5 61q0 8 0.5 16.5t1.5 16.5q2 26 12 54.5t27.5 52t41 39t53.5 15.5q23 0 47 -11q0 7 -0.5 26t-3.5 38t-8.5 34t-16.5 15q-16 0 -27 -9.5t-18.5 -23
t-13.5 -28.5t-11 -27l-14 -7q-13 3 -21 10.5t-8 21.5q0 6 1 9q4 19 12 39.5t20.5 37t30 27.5t40.5 11q28 0 48.5 -12t34.5 -31.5t21.5 -43.5t9.5 -49q6 -74 8 -146.5t2 -146.5v-33.5t1 -33.5q0 -8 1 -15.5t1 -15.5q0 -19 -5.5 -26.5t-12 -13.5t-12 -13.5t-5.5 -26.5
q0 -10 4 -18.5t16 -8.5q4 0 7.5 1.5t8.5 1.5q11 0 19.5 -8.5t8.5 -19.5q0 -8 -5 -13.5t-12 -9t-15 -5t-15 -1.5zM189 297q0 4 -7 8t-16.5 7.5t-18.5 6t-13 2.5q-12 0 -22 -7.5t-18 -18.5t-13.5 -23t-9.5 -22q-5 -14 -6.5 -28t-1.5 -28q0 -9 0.5 -22t2.5 -26.5t5.5 -25.5
t8.5 -19q4 -5 7.5 -10t8.5 -10q7 -7 13 -12t14 -10h1q16 1 28 11.5t20 25t12.5 30.5t4.5 30v141z" />
    <glyph glyph-name="Cacute" unicode="&#x106;" horiz-adv-x="334" 
d="M147 807q-12 0 -19.5 9t-7.5 20q0 6 5.5 16.5t13 21.5t15 20.5t11.5 15.5q4 5 6.5 11t6.5 11q5 6 11.5 11.5t14.5 5.5q11 0 19 -8t8 -19q0 -5 -8 -19t-18.5 -30.5t-21 -31t-14.5 -20.5q-4 -5 -9 -9.5t-13 -4.5zM234 593q-13 0 -18.5 6t-7.5 14.5t-1.5 18.5t0.5 18v11.5
t-1.5 15t-4.5 13t-8 5.5q-9 0 -16 -6t-12.5 -14.5t-9.5 -17.5t-7 -16t-6.5 -13.5t-6.5 -13.5q-7 -17 -13 -43t-10.5 -54.5t-7 -55t-2.5 -45.5t0.5 -48.5t3 -64t6.5 -71t11 -68.5t16.5 -57.5t23.5 -38.5q6 -4 10 -4q9 0 14.5 11t11.5 23.5t13 23.5t18 11q14 0 21.5 -11
t7.5 -24q0 -18 -7 -35.5t-19 -31.5t-28.5 -23t-35.5 -9q-8 0 -14.5 2t-14.5 4q-17 5 -32 11.5t-29 19.5q-17 17 -30 38t-19 45q-15 65 -21 130.5t-6 131.5q0 38 4 75t9 74q4 23 7 47t11 47q7 22 18.5 47t27.5 45t37 33.5t49 13.5q48 0 74 -31.5t26 -77.5q0 -7 -1.5 -17.5
t-5 -20t-10 -16.5t-15.5 -7z" />
    <glyph glyph-name="cacute" unicode="&#x107;" horiz-adv-x="268" 
d="M104 601q-11 0 -18.5 8.5t-7.5 19.5q0 6 5.5 16.5t13 21t14.5 20.5t11 15t7 11t6 11q5 7 11.5 12.5t14.5 5.5q11 0 18.5 -8.5t7.5 -18.5q0 -5 -8 -19t-18.5 -30t-20 -30.5t-13.5 -20.5q-5 -6 -10 -10t-13 -4zM119 0q-37 0 -59 23.5t-33 56.5t-15 70t-5 64q-3 42 -3 86
q0 16 1.5 42t5.5 55t11.5 58.5t19 53t29 38.5t40.5 15q26 0 42.5 -11t25.5 -28.5t12 -39t3 -43.5q0 -14 -5.5 -26t-22.5 -12q-11 0 -16 6.5t-7 16t-1.5 19.5t0.5 18q0 10 -2 17.5t-8 16.5q-14 -15 -23 -36t-13.5 -44.5t-6 -46.5t-1.5 -43q0 -49 1.5 -98t6.5 -98
q0 -7 2 -18.5t6 -23t10.5 -19.5t15.5 -8q14 0 19.5 16t9 34.5t10 34.5t22.5 16q11 0 17 -8t6 -18q0 -8 -1.5 -14.5t-3.5 -13.5q-4 -20 -9.5 -39.5t-15 -34.5t-25.5 -24.5t-40 -9.5z" />
    <glyph glyph-name="Ccircumflex" unicode="&#x108;" horiz-adv-x="334" 
d="M203 796q-12 0 -18 11q-10 15 -16 34t-12 35q-8 -17 -16 -33.5t-16 -33.5q-2 -5 -6 -9.5t-11 -4.5q-9 0 -20.5 7t-11.5 17q0 4 8 23t18 41t19.5 41t13.5 24t9 9t12 4q8 0 13.5 -5t8.5 -12q3 -6 11.5 -24.5t17.5 -39t15.5 -38t6.5 -22.5q0 -10 -8 -17t-18 -7zM234 593
q-13 0 -18.5 6t-7.5 14.5t-1.5 18.5t0.5 18v11.5t-1.5 15t-4.5 13.5t-8 6q-9 0 -16 -6t-12.5 -14.5t-9.5 -18t-7 -16.5t-6.5 -13.5t-6.5 -13.5q-7 -17 -13 -43t-10.5 -54t-7 -55t-2.5 -46t0.5 -48.5t3 -64t6.5 -71t11 -68.5t16.5 -57.5t23.5 -38.5q6 -4 10 -4q9 0 14.5 11
t11.5 23.5t13 23.5t18 11q14 0 21.5 -11t7.5 -24q0 -18 -7 -35.5t-19 -31.5t-28.5 -23t-35.5 -9q-8 0 -14.5 2t-14.5 4q-17 5 -32 11.5t-29 19.5q-17 17 -30 38t-19 45q-15 65 -21 130.5t-6 131.5q0 38 4 75t9 74q4 24 7 47.5t11 46.5q7 22 18.5 47t27.5 45t37 33.5t49 13.5
q48 0 74 -31t26 -78q0 -7 -1.5 -17.5t-5 -20t-10 -16.5t-15.5 -7z" />
    <glyph glyph-name="ccircumflex" unicode="&#x109;" horiz-adv-x="268" 
d="M158 589q-11 0 -18 12q-9 14 -15.5 33t-11.5 35q-8 -17 -15.5 -33t-15.5 -33q-3 -6 -6.5 -10t-11.5 -4t-19 7t-11 16q0 5 7.5 23.5t17.5 40.5t19.5 41t13.5 24t8.5 9t11.5 4q8 0 13.5 -5t8.5 -12q3 -6 11.5 -24.5t17 -39t15 -38t6.5 -21.5q0 -10 -8 -17.5t-18 -7.5z
M119 0q-37 0 -59 23.5t-33 56.5t-15 70t-5 64q-3 43 -3 86q0 16 1.5 42t5.5 55t11.5 58.5t19 53t29 38.5t40.5 15q26 0 42.5 -11t25.5 -28t12 -39t3 -43q0 -14 -5.5 -26.5t-22.5 -12.5q-11 0 -16 6.5t-7 16t-1.5 19.5t0.5 18q0 11 -2 18t-8 16q-14 -15 -23 -36t-13.5 -44.5
t-6 -46.5t-1.5 -43q0 -49 1.5 -98t6.5 -98q0 -7 2 -18.5t6 -23t10.5 -19.5t15.5 -8q14 0 19.5 16t9 34.5t10 34.5t22.5 16q11 0 17 -8t6 -18q0 -8 -1.5 -14.5t-3.5 -13.5q-4 -20 -9.5 -39.5t-15 -34.5t-25.5 -24.5t-40 -9.5z" />
    <glyph glyph-name="Cdotaccent" unicode="&#x10a;" horiz-adv-x="334" 
d="M160 803q-16 0 -24.5 13t-8.5 27q0 17 10 28t27 11q14 0 24.5 -11.5t10.5 -25.5q0 -17 -11 -29.5t-28 -12.5zM234 592q-13 0 -18.5 6t-7.5 14.5t-1.5 18.5t0.5 18v11.5t-1.5 15t-4.5 13t-8 5.5q-9 0 -16 -6t-12.5 -14.5t-9.5 -17.5t-7 -16t-6.5 -13.5t-6.5 -13.5
q-7 -17 -13 -43t-10.5 -54t-7 -55t-2.5 -46t0.5 -48.5t3 -64t6.5 -70.5t11 -68t16.5 -57.5t23.5 -38.5q6 -4 10 -4q9 0 14.5 11t11.5 23.5t13 23.5t18 11q14 0 21.5 -11.5t7.5 -23.5q0 -18 -7 -35.5t-19 -32t-28.5 -23t-35.5 -8.5q-8 0 -14.5 2t-14.5 4q-17 5 -32 11.5
t-29 19.5q-17 17 -30 38t-19 45q-15 65 -21 130t-6 131q0 38 4 75t9 74q4 24 7 47.5t11 46.5q7 22 18.5 47t27.5 45t37 33.5t49 13.5q48 0 74 -31.5t26 -77.5q0 -7 -1.5 -17.5t-5 -20t-10 -16.5t-15.5 -7z" />
    <glyph glyph-name="cdotaccent" unicode="&#x10b;" horiz-adv-x="268" 
d="M104 596q-15 0 -23.5 13t-8.5 27q0 17 9.5 28t26.5 11q14 0 24.5 -11.5t10.5 -25.5q0 -17 -10.5 -29.5t-28.5 -12.5zM119 0q-37 0 -59 23t-33 56.5t-15 70t-5 63.5q-3 43 -3 86q0 25 3.5 68.5t14.5 86.5t32.5 74.5t56.5 31.5q26 0 42.5 -11t25.5 -28t12 -38.5t3 -43.5
q0 -14 -5.5 -26t-22.5 -12q-11 0 -16 6.5t-7 16t-1.5 19.5t0.5 17q0 11 -2 18.5t-8 15.5q-14 -15 -23 -36t-13.5 -44t-6 -46t-1.5 -43q0 -49 1.5 -97.5t6.5 -97.5q0 -7 2 -18.5t6 -23t10.5 -19.5t15.5 -8q14 0 19.5 16t9 34.5t10 34.5t22.5 16q11 0 17 -8t6 -19
q0 -7 -1.5 -13.5t-3.5 -14.5q-4 -20 -9.5 -39t-15 -34t-25.5 -24.5t-40 -9.5z" />
    <glyph glyph-name="Ccaron" unicode="&#x10c;" horiz-adv-x="334" 
d="M234 594q-13 0 -18.5 5.5t-7.5 14t-1.5 18.5t0.5 18v11.5t-1.5 15t-4.5 13.5t-8 6q-9 0 -16 -6t-12.5 -14.5t-9.5 -18t-7 -15.5q-3 -8 -6.5 -14.5t-6.5 -13.5q-7 -17 -13 -43t-10.5 -54t-7 -55t-2.5 -46t0.5 -48.5t3 -64t6.5 -71t11 -68.5t16.5 -57.5t23.5 -38.5
q6 -4 10 -4q9 0 14.5 11t11.5 23.5t13 23.5t18 11q14 0 21.5 -11t7.5 -24q0 -18 -7 -35.5t-19 -31.5t-28.5 -23t-35.5 -9q-8 0 -14.5 2t-14.5 4q-17 5 -32 11.5t-29 19.5q-17 17 -30 38t-19 45q-15 65 -21 130.5t-6 131.5q0 38 4 75t9 74q4 24 7 47.5t11 46.5q7 22 18.5 47
t27.5 45.5t37 34t49 13.5q48 0 74 -31.5t26 -77.5q0 -7 -1.5 -17.5t-5 -20t-10 -16.5t-15.5 -7zM160 806q-8 0 -13.5 5t-9.5 12t-12 24.5t-16.5 37.5t-14.5 37.5t-6 23.5q0 25 25 25q9 0 16.5 -10t13 -23.5t9.5 -27t7 -20.5q2 5 7 16t10 22.5t9.5 21.5t6.5 13q6 8 15 8
q8 0 19.5 -6.5t11.5 -16.5q0 -5 -7.5 -24t-17.5 -41t-19.5 -41t-13.5 -24q-10 -12 -20 -12z" />
    <glyph glyph-name="ccaron" unicode="&#x10d;" horiz-adv-x="268" 
d="M119 0q-37 0 -59 23.5t-33 56.5t-15 70t-5 64q-3 42 -3 86q0 16 1.5 42t5.5 55t11.5 58.5t19 53t29 38.5t40.5 15q26 0 42.5 -11t25.5 -28.5t12 -39t3 -43.5q0 -14 -5.5 -26t-22.5 -12q-11 0 -16 6.5t-7 16t-1.5 19.5t0.5 18q0 11 -2 18t-8 16q-14 -15 -23 -36
t-13.5 -44.5t-6 -46.5t-1.5 -43q0 -49 1.5 -98t6.5 -98q0 -7 2 -18.5t6 -23t10.5 -19.5t15.5 -8q14 0 19.5 16t9 34.5t10 34.5t22.5 16q11 0 17 -8t6 -18q0 -8 -1.5 -14.5t-3.5 -13.5q-4 -20 -9.5 -39.5t-15 -34.5t-25.5 -24.5t-40 -9.5zM112 591q-8 0 -13.5 5t-9.5 12
t-12 24.5t-16.5 37.5t-14.5 37.5t-6 23.5q0 25 25 25q9 0 16.5 -10t13 -23.5t9.5 -27t7 -20.5q2 5 7 16t10 22.5t9.5 21.5t6.5 13q6 8 15 8q8 0 19.5 -6.5t11.5 -16.5q0 -5 -7.5 -24t-17.5 -41t-19.5 -41t-13.5 -24q-10 -12 -20 -12z" />
    <glyph glyph-name="Dcaron" unicode="&#x10e;" horiz-adv-x="323" 
d="M69 1q-16 0 -31.5 7.5t-21.5 23.5q-5 13 -5 26t-1 27q-9 216 -9 432v47t1 64.5t3 63t5 41.5q4 15 10.5 20t20.5 8q5 2 8 3.5t8 1.5q20 0 35.5 -12t29.5 -24q27 -23 51 -48t40 -57q16 -33 28 -63t19 -60t10.5 -61.5t3.5 -68.5q0 -14 -0.5 -27t-1.5 -27q-2 -32 -10.5 -74.5
t-23.5 -84t-36.5 -77.5t-49.5 -55q-17 -11 -33 -18q-11 -5 -24.5 -6.5t-25.5 -1.5zM91 669q0 -37 2.5 -74t3.5 -75q3 -100 4 -198.5t1 -198.5q0 -11 0.5 -20.5t1.5 -19.5q16 6 30 22.5t24.5 37t18 41.5t12.5 37q16 52 19 110q1 11 1.5 22.5t0.5 22.5q0 61 -14.5 119
t-46.5 111q-8 11 -17 21.5t-18 21.5q-5 6 -11 10.5t-12 9.5zM71 807q-8 0 -13.5 5t-8.5 12q-4 7 -12 24.5t-16.5 37.5t-15 37.5t-6.5 23.5q0 11 7 18t18 7q9 0 16.5 -10t13.5 -23.5t10 -27t6 -20.5q2 5 7 16t10 23t10 21.5t7 12.5q6 8 14 8q9 0 20.5 -6.5t11.5 -16.5
q0 -5 -8 -24t-18 -41t-19.5 -41t-13.5 -24q-9 -12 -20 -12z" />
    <glyph glyph-name="dcaron" unicode="&#x10f;" horiz-adv-x="384" 
d="M308 600q-10 0 -15.5 10t-5.5 18q0 6 3 17.5t6.5 24t7.5 24t6 18.5q-14 0 -24 12.5t-10 26.5q0 18 14.5 35.5t34.5 17.5q10 0 17.5 -6t11.5 -15t6 -19t2 -18q0 -24 -8.5 -48.5t-15.5 -47.5q-2 -7 -3.5 -14.5t-3.5 -15.5q-2 -7 -8.5 -13.5t-14.5 -6.5zM236 3
q-17 0 -26.5 10.5t-14.5 26.5q-11 -16 -26 -28t-36 -11h-8q-31 0 -52.5 20t-35.5 48.5t-21.5 60.5t-9.5 57q-3 31 -3 63q0 48 8.5 95t27.5 92q9 21 19 41t24.5 36.5t33 26.5t44.5 10q4 0 7 -0.5t6 -0.5q0 56 1.5 110.5t1.5 110.5q0 14 4 29t22 15q5 0 10.5 -0.5t10.5 -0.5
q14 0 26 -3.5t12 -22.5q0 -27 -0.5 -54t-0.5 -54v-122q0 -44 0.5 -87t0.5 -86q0 -34 -1 -67t-1 -66q0 -60 3 -120q2 -24 5.5 -47.5t3.5 -46.5q0 -15 -10 -25t-25 -10zM172 354q0 18 0.5 36.5t0.5 36.5v63q-2 0 -5 0.5t-5 0.5q-13 0 -22.5 -8t-17.5 -18q-16 -21 -27.5 -48
t-19 -57t-11 -60t-3.5 -55q0 -20 1.5 -43t6 -46t13.5 -43.5t24 -35.5q4 -3 9 -7.5t10 -4.5q6 0 11 5t8 10q8 10 13 17t8.5 14.5t6.5 16t6 20.5q-4 51 -5.5 103t-1.5 103z" />
    <glyph glyph-name="Dcroat" unicode="&#x110;" horiz-adv-x="373" 
d="M109 -3q-17 0 -33.5 6.5t-23.5 23.5q-5 13 -5 26t-1 27q-3 71 -4.5 141.5t-3.5 141.5h-7q-15 0 -23 10t-8 24q0 18 11 23t26 5q0 63 0.5 124.5t3.5 124.5q1 12 1.5 25t3.5 25q4 15 11 20t20 9q5 1 8.5 2.5t7.5 1.5q19 0 35.5 -12t30.5 -24q11 -10 22.5 -19.5t22.5 -20.5
q29 -30 47 -64q16 -32 28 -61.5t19 -59.5t10.5 -62t3.5 -68v-27t-2 -27q-4 -75 -30 -147q-9 -24 -18 -46.5t-21.5 -42t-29.5 -36t-41 -28.5q-16 -8 -29.5 -11.5t-31.5 -3.5zM127 662q0 -18 1.5 -36.5t2.5 -36.5q2 -41 3 -81.5t2 -81.5q11 1 22.5 2t22.5 1q14 0 22 -10t8 -24
q0 -26 -26 -28q-12 -1 -24 -1t-24 -1q1 -62 1.5 -123.5t0.5 -124.5q0 -10 0.5 -19.5t1.5 -19.5q18 7 31.5 23.5t24 36t17.5 40t13 37.5q12 38 16.5 76.5t4.5 77.5q0 72 -21 141.5t-71 124.5q-7 8 -14 14.5t-15 12.5z" />
    <glyph glyph-name="dcroat" unicode="&#x111;" horiz-adv-x="346" 
d="M166 635h6q0 31 2 62t2 62q0 12 5 22.5t19 10.5q5 0 10.5 -1t10.5 -1q14 0 25.5 -4t11.5 -21q0 -33 -1 -66l-2 -66h4q16 1 21.5 -8t5.5 -23q0 -17 -7 -25t-25 -6q0 -51 0.5 -100t-1.5 -100l-2 -74t-1 -75v-48t2 -48q2 -41 6 -80q0 -3 0.5 -5.5t0.5 -5.5q0 -15 -9.5 -25
t-24.5 -10q-17 0 -26.5 10.5t-13.5 25.5q-11 -16 -25 -27.5t-34 -11.5q-27 0 -46.5 12.5t-33 32.5t-22 46t-13.5 53t-6.5 52.5t-1.5 45.5q0 47 8.5 92.5t26.5 89.5q9 20 19 40t23.5 36.5t32 26.5t43.5 10h14v39q-17 1 -34.5 0.5t-34.5 -0.5q-14 0 -23 6.5t-9 21.5
q0 16 11 23t27 9.5t32 2t27 -0.5zM171 142q-1 40 -2.5 79.5t-1.5 78.5v68q0 26 0.5 52.5t1.5 53.5q-3 1 -10 1q-18 0 -33 -17.5t-26.5 -41.5t-19 -49t-10.5 -39q-10 -44 -10 -93q0 -18 1.5 -40.5t6 -45t12.5 -42.5t22 -34l7.5 -7.5t9.5 -4.5q6 0 11 5t8 9q8 10 12.5 17.5
t7.5 15t5.5 15.5t7.5 19z" />
    <glyph glyph-name="Emacron" unicode="&#x112;" 
d="M37 805q-11 0 -19 8.5t-8 20.5q0 28 28 28h161q11 0 17 -8t6 -19q0 -16 -8.5 -22t-22.5 -7q-23 -1 -44.5 -0.5t-43.5 0.5q-17 0 -33 -0.5t-33 -0.5zM198 0h-171q-13 0 -20 8q-3 5 -4.5 16.5t-1.5 24v25v18.5q0 120 1.5 238t1.5 238q0 38 -1.5 76.5t-1.5 76.5
q0 17 10.5 28.5t27.5 11.5q29 0 56.5 0.5t55.5 0.5q11 0 20.5 -0.5t20.5 -0.5q9 0 17 -3.5t8 -14.5q0 -4 0.5 -7.5t0.5 -7.5q0 -6 -1.5 -12t-5.5 -11q-8 -8 -17 -8q-23 0 -46.5 -0.5t-46.5 -0.5q2 -70 1.5 -140t-0.5 -140q6 -1 12 -1h11q11 0 20.5 1t19.5 1q14 0 23 -8
t9 -23t-11 -21.5t-26.5 -9t-31.5 -2t-26 0.5v-168v-121q23 0 45.5 0.5t45.5 0.5q14 0 24 -7l5 -10q0 -5 0.5 -10.5t0.5 -10.5q0 -11 -6 -19.5t-19 -8.5z" />
    <glyph glyph-name="emacron" unicode="&#x113;" horiz-adv-x="287" 
d="M62 591q-12 0 -20 8t-8 20q0 28 29 28h162q11 0 17 -8t6 -18q0 -16 -9 -22.5t-23 -6.5q-22 -2 -44 -1t-44 1q-17 0 -33 -0.5t-33 -0.5zM141 2h-17q-36 0 -59.5 23.5t-37.5 57t-19.5 71t-5.5 65.5q0 18 0.5 36t0.5 37q1 20 4 48t9.5 57.5t17 58.5t25.5 51.5t36 36.5t48 14
t45 -12.5t29.5 -32t16 -43.5t4.5 -46q0 -26 -5.5 -39t-16 -19t-26.5 -7.5t-37 -2.5l-28 -2t-28 -3q-5 -26 -6.5 -53t-1.5 -53q0 -15 2 -44.5t8 -59t18 -51.5t33 -22q14 0 20.5 10t12.5 22t13.5 22t22.5 10q12 0 18.5 -9t6.5 -20q0 -7 -3 -17.5t-7.5 -21.5t-10 -20.5
t-10.5 -14.5q-15 -17 -32.5 -22t-39.5 -5zM149 499q-8 0 -15.5 -11t-13 -25.5t-9.5 -29t-5 -21.5q19 1 37.5 2t37.5 3q1 5 1 14q0 7 -1 19t-4.5 22.5t-10 18.5t-17.5 8z" />
    <glyph glyph-name="Ebreve" unicode="&#x114;" 
d="M107 804q-24 0 -40.5 10t-26.5 26t-14 36t-4 41q0 13 5.5 27.5t21.5 14.5q14 0 20.5 -8t6.5 -22q0 -5 -0.5 -9.5t-0.5 -9.5q0 -20 5.5 -34t29.5 -14q12 0 19 7t10.5 17.5t4.5 21.5t1 20q0 11 4 23.5t19 12.5q17 0 24 -11.5t7 -26.5q0 -10 -0.5 -21t-3.5 -21
q-8 -30 -31 -55t-57 -25zM198 0h-171q-13 0 -20 8q-3 5 -4.5 16.5t-1.5 24v25v18.5q0 120 1.5 238.5t1.5 238.5q0 38 -1.5 76.5t-1.5 77.5q0 16 10.5 28t27.5 12q29 0 56.5 0.5t55.5 0.5q11 0 20.5 -0.5t20.5 -0.5q9 0 17 -3.5t8 -14.5q0 -4 0.5 -7.5t0.5 -7.5q0 -14 -7 -24
q-7 -7 -17 -7q-23 0 -46.5 -0.5t-46.5 -0.5q2 -71 1.5 -141t-0.5 -140q6 -1 12 -1h11q11 0 20.5 1t19.5 1q14 0 23 -8t9 -23t-11 -21.5t-26.5 -9t-31.5 -2t-26 0.5v-169v-120q23 -1 45.5 -0.5t45.5 0.5q13 0 24 -6l5 -11q0 -5 0.5 -10.5t0.5 -10.5q0 -11 -6 -19.5t-19 -8.5z
" />
    <glyph glyph-name="ebreve" unicode="&#x115;" horiz-adv-x="287" 
d="M138 582q-25 0 -41.5 10t-26.5 25.5t-14 36t-4 41.5q0 12 5.5 26.5t20.5 14.5q14 0 21.5 -8t7.5 -22q0 -5 -1 -9t-1 -9q0 -20 6 -34.5t29 -14.5q12 0 19 7t11 17.5t5 21.5t1 20q0 11 4 23.5t19 12.5q17 0 24 -11t7 -27q0 -10 -0.5 -20.5t-3.5 -20.5q-8 -31 -31 -55.5
t-57 -24.5zM141 2h-17q-36 0 -59.5 23.5t-37.5 57.5t-19.5 71.5t-5.5 65.5q0 18 0.5 36t0.5 37q1 20 4 48t9.5 57.5t17 58.5t25.5 52t36 37t48 14t45 -12.5t29.5 -32t16 -43.5t4.5 -46q0 -26 -5.5 -39.5t-16 -19.5t-26.5 -7.5t-37 -2.5l-28 -2l-28 -2q-5 -26 -6.5 -53.5
t-1.5 -53.5q0 -15 2 -44.5t8 -59t18 -51.5t33 -22q14 0 20.5 10t12.5 21.5t13.5 21.5t22.5 10q12 0 18.5 -8.5t6.5 -19.5q0 -8 -3 -18.5t-7.5 -21.5t-10 -20.5t-10.5 -14.5q-16 -17 -33 -22t-39 -5zM149 500q-8 0 -15.5 -11t-13 -25.5t-9.5 -29t-5 -20.5q19 0 37.5 1.5
t37.5 3.5q1 3 1 6.5v6.5q0 8 -1 19.5t-5 22.5t-10.5 18.5t-16.5 7.5z" />
    <glyph glyph-name="Edotaccent" unicode="&#x116;" 
d="M104 811q-16 0 -24.5 13t-8.5 27q0 17 9.5 28t26.5 11q15 0 25 -11.5t10 -25.5q0 -17 -10.5 -29.5t-27.5 -12.5zM198 0h-171q-13 0 -20 8q-3 5 -4.5 16.5t-1.5 24v25v18.5q0 120 1.5 238t1.5 238q0 38 -1.5 76.5t-1.5 76.5q0 17 10.5 29t27.5 12q29 0 56.5 0.5t55.5 0.5
q11 0 20.5 -0.5t20.5 -0.5q9 0 17 -3.5t8 -15.5q0 -3 0.5 -6.5t0.5 -7.5q0 -14 -7 -24q-7 -7 -17 -7q-23 0 -46.5 -0.5t-46.5 -0.5q2 -71 1.5 -141t-0.5 -140h23q11 0 20.5 1t19.5 1q14 0 23 -8.5t9 -22.5q0 -15 -11 -22t-26.5 -9.5t-31.5 -2t-26 0.5v-168v-121
q23 0 45.5 0.5t45.5 0.5q14 0 24 -7l5 -10q0 -5 0.5 -10.5t0.5 -10.5q0 -11 -6 -19.5t-19 -8.5z" />
    <glyph glyph-name="edotaccent" unicode="&#x117;" horiz-adv-x="287" 
d="M138 598q-16 0 -24.5 13t-8.5 27q0 17 10 28t27 11q14 0 24.5 -11.5t10.5 -25.5q0 -17 -11 -29.5t-28 -12.5zM141 2h-17q-36 0 -59.5 23.5t-37.5 57t-19.5 71t-5.5 65.5q0 18 0.5 36.5t0.5 36.5q1 20 4 48t9.5 57.5t17 58.5t25.5 52t36 37t48 14t45 -12.5t29 -32
t16 -43.5t5 -46q0 -26 -5.5 -39.5t-16 -19.5t-26.5 -7.5t-37 -2.5l-28 -2l-28 -2q-5 -26 -6.5 -53.5t-1.5 -53.5q0 -15 2 -44.5t8 -59t18 -51.5t33 -22q14 0 20.5 10t12.5 22t13.5 22t22.5 10q12 0 18.5 -9t6.5 -20q0 -7 -3 -17.5t-7.5 -21.5t-10 -20.5t-10.5 -14.5
q-16 -17 -33 -22t-39 -5zM149 499q-8 0 -15.5 -11t-13 -25.5t-9.5 -29t-5 -20.5q19 0 37.5 1.5t37.5 3.5q1 3 1 6.5v6.5q0 8 -1 19.5t-5 22.5t-10.5 18.5t-16.5 7.5z" />
    <glyph glyph-name="Eogonek" unicode="&#x118;" horiz-adv-x="298" 
d="M197 -141q-36 0 -53.5 25.5t-17.5 57.5q0 14 3 27.5t10 25.5q-28 0 -55 -0.5t-54 -0.5q-11 0 -21 8l-3 8q-2 24 -2 48v47q0 116 1 230.5t1 229.5q0 39 -1 77.5t-1 76.5q0 17 10.5 29t27.5 12q29 0 57 0.5t57 0.5q9 0 18 -0.5t19 -0.5t19.5 -3t9.5 -16q0 -3 0.5 -6.5
t0.5 -7.5q0 -15 -8 -24q-6 -8 -17 -8h-46.5t-47.5 -1q3 -70 2.5 -140.5t-0.5 -141.5h23q11 0 20.5 1t19.5 1q14 0 23.5 -8.5t9.5 -22.5q0 -11 -6.5 -18.5t-17.5 -9.5q-17 -4 -36 -4.5t-36 -0.5v-290q23 0 47 0.5t48 0.5q13 0 21 -7l5 -10l1 -16q0 -18 -7.5 -26t-16.5 -15
t-16.5 -17t-7.5 -30q0 -11 3 -18.5t16 -7.5q8 0 14.5 3.5t14.5 3.5q10 0 17 -7.5t7 -17.5q0 -11 -5.5 -18t-14 -11t-18 -6t-17.5 -2z" />
    <glyph glyph-name="eogonek" unicode="&#x119;" horiz-adv-x="288" 
d="M187 10q-6 -11 -12 -16.5t-11.5 -11t-8.5 -12.5t-3 -22q0 -10 4 -17.5t15 -7.5q8 0 14.5 2.5t14.5 2.5q10 0 17 -7t7 -17t-5.5 -17t-14 -11t-18 -6t-17.5 -2q-35 0 -52.5 24.5t-17.5 56.5q0 30 13 53q-31 6 -51.5 29t-33 54t-17.5 65t-5 60q0 20 0.5 38.5t0.5 38.5
q0 31 5.5 61.5t12.5 60.5q5 22 14 47t23.5 46t35 35t47.5 14q26 0 44 -12.5t29 -32t16 -42.5t5 -45q0 -11 -1.5 -22t-6.5 -22q-4 -8 -11.5 -12.5t-16.5 -7t-18.5 -3t-17.5 -1.5l-34 -2t-34 -3q-5 -25 -6 -51t-1 -51q0 -37 5.5 -75.5t20.5 -73.5q6 -15 21 -23q7 -5 13 -5
q14 0 20.5 10t12 21.5t12.5 21.5t22 10q12 0 19 -8.5t7 -19.5q0 -7 -3 -17.5t-7.5 -21.5t-10 -20.5t-9.5 -14.5q-11 -11 -27 -18zM150 492q-9 0 -16 -11t-12 -25t-9 -28t-5 -21q18 0 36.5 1.5t36.5 3.5q1 5 1 9v9q0 7 -1 18t-4.5 20.5t-10 16.5t-16.5 7z" />
    <glyph glyph-name="Ecaron" unicode="&#x11a;" 
d="M112 795q-8 0 -13.5 5t-8.5 12q-4 7 -12 24.5t-16.5 37.5t-15 37.5t-6.5 23.5q0 11 7 18t18 7q9 0 16.5 -10t13.5 -23.5t10 -27t6 -20.5q2 5 7 16t10 23t10 21.5t7 12.5q6 8 14 8q9 0 20.5 -6.5t11.5 -16.5q0 -5 -8 -24t-18 -41t-19.5 -41t-13.5 -24q-9 -12 -20 -12z
M198 0h-171q-13 0 -20 8q-2 2 -3.5 10t-2 17.5t-0.5 18v11.5q0 127 1.5 252t1.5 252q0 38 -1.5 77t-1.5 77q0 17 10.5 28.5t27.5 11.5q29 0 56.5 0.5t55.5 0.5q11 0 20.5 -0.5t20.5 -0.5q9 0 17 -3.5t8 -14.5q0 -4 0.5 -7.5t0.5 -7.5q0 -14 -7 -24q-9 -7 -17 -7
q-23 0 -46.5 -0.5t-46.5 -0.5q2 -71 1.5 -140.5t-0.5 -140.5q6 0 12 -0.5t11 -0.5q11 0 20.5 1.5t19.5 1.5q14 0 23 -8.5t9 -23.5t-11.5 -22t-27 -9t-31.5 -1.5t-25 0.5v-169v-120q23 -1 45.5 -0.5t45.5 0.5q13 0 24 -6l5 -11q0 -5 0.5 -10.5t0.5 -10.5q0 -11 -6 -19.5
t-19 -8.5z" />
    <glyph glyph-name="ecaron" unicode="&#x11b;" horiz-adv-x="287" 
d="M141 2h-17q-36 0 -59.5 23.5t-37.5 57.5t-19.5 71.5t-5.5 65.5q0 18 0.5 36.5t0.5 36.5q1 20 4 48t9.5 57.5t17 58.5t25.5 52t36 37t48 14t45 -12.5t29.5 -32t16 -43.5t4.5 -46q0 -26 -5.5 -39.5t-16 -19.5t-26.5 -7.5t-37 -2.5l-28 -2l-28 -2q-5 -26 -6.5 -53.5
t-1.5 -53.5q0 -15 2 -44.5t8 -59t18 -51.5t33 -22q14 0 20.5 10t12.5 21.5t13.5 21.5t22.5 10q12 0 18.5 -8.5t6.5 -19.5q0 -8 -3 -18.5t-7.5 -21.5t-10 -20.5t-10.5 -14.5q-16 -17 -33 -22t-39 -5zM149 501q-8 0 -15.5 -11t-13 -26t-9.5 -29.5t-5 -20.5q19 0 37.5 1.5
t37.5 3.5q1 4 1 14q0 7 -1 19t-5 22.5t-10.5 18.5t-16.5 8zM139 591q-8 0 -13.5 5t-9.5 12t-12 24.5t-16.5 37.5t-14.5 37.5t-6 23.5q0 25 25 25q9 0 16.5 -10t13 -23.5t9.5 -27t7 -20.5q2 5 7 16t10 22.5t9.5 21.5t6.5 13q6 8 15 8q8 0 19.5 -6.5t11.5 -16.5q0 -5 -7.5 -24
t-17.5 -41t-19.5 -41t-13.5 -24q-10 -12 -20 -12z" />
    <glyph glyph-name="Gcircumflex" unicode="&#x11c;" horiz-adv-x="351" 
d="M198 804q-13 0 -19 11q-9 15 -15.5 34t-12.5 35q-8 -17 -15.5 -33.5t-15.5 -33.5q-3 -5 -7 -9.5t-11 -4.5q-8 0 -19.5 7t-11.5 17q0 4 8 23t18 40.5t19.5 41t13.5 24.5t8.5 9t11.5 4q8 0 13.5 -5t9.5 -12q3 -6 11.5 -24.5t17 -39t15 -38t6.5 -22.5q0 -10 -7.5 -17
t-17.5 -7zM140 0q-43 0 -72 26q-25 24 -38.5 70t-19.5 98.5t-7 104t-1 84.5q0 37 0.5 81t5.5 88.5t16.5 85.5t33.5 73q17 23 40 38t52 15q17 0 34 -5.5t32 -13.5q24 -14 34.5 -42.5t10.5 -54.5q0 -17 -6.5 -33t-26.5 -16t-24.5 14.5t-6.5 32.5t-7.5 32.5t-25.5 14.5
q-5 0 -9 -4q-18 -23 -29 -65.5t-17 -90t-8 -93.5t-2 -76q0 -22 1.5 -43.5t3.5 -44.5q1 -17 3 -50t8.5 -66t20 -57.5t39.5 -24.5q9 0 14 14.5t7.5 33t3.5 36.5t1 25q0 75 -9 149q-11 -1 -22.5 -4.5t-23.5 -3.5q-15 0 -27 12t-12 27q0 13 7 20.5t17.5 11.5t22.5 5.5t21 3.5
q8 2 15 3t15 1q3 0 5.5 -0.5t4.5 -0.5q29 -5 36 -22t7 -42q0 -20 3 -38.5t4 -38.5q3 -45 3 -89q0 -34 -4.5 -66.5t-18 -58t-38.5 -41t-67 -15.5z" />
    <glyph glyph-name="gcircumflex" unicode="&#x11d;" horiz-adv-x="306" 
d="M175 581q-7 0 -11 3.5t-8 8.5q-9 14 -15 33t-12 36q-8 -17 -15.5 -33.5t-15.5 -33.5q-3 -6 -6.5 -10t-10.5 -4q-9 0 -20 7t-11 16q0 5 7.5 24t17.5 40.5t19.5 41t13.5 24.5t8.5 9t11.5 4q8 0 13.5 -5.5t9.5 -11.5q3 -6 11 -24.5t16.5 -39t15 -38.5t6.5 -22
q0 -10 -7.5 -17.5t-17.5 -7.5zM112 -218q-14 0 -25.5 6t-21.5 15q-15 13 -25 34t-15 44.5t-7 47.5t-2 43q0 6 1 13t4 14t8 11.5t12 4.5q12 0 18 -8t8 -19t2 -23v-20q0 -10 1.5 -24.5t5 -29.5t9 -27.5t13.5 -18.5q2 -1 4 -2.5t4 -1.5q5 0 9.5 4.5t7.5 11t5 13.5t3 11
q4 28 6 56.5t2 56.5q-10 -5 -21 -5q-18 0 -34 11q-30 19 -46.5 48t-24.5 62.5t-9.5 69t-1.5 67.5q0 18 0.5 39.5t3 43.5t6 43t9.5 38q6 18 11 37t14 36q11 22 29 42t45 20q21 0 39 -4.5t33 -20.5q30 -30 30 -70v-246q0 -42 0.5 -83.5t0.5 -83.5q0 -14 -1.5 -28.5t-3.5 -28.5
q0 -2 -0.5 -5t-0.5 -6q-1 -23 -5.5 -55.5t-16.5 -62t-32 -50t-51 -20.5zM139 384q0 26 -0.5 51.5t-1.5 51.5h-6q-14 1 -22.5 -9t-13.5 -21q-25 -47 -32.5 -105t-7.5 -110q0 -20 1 -47t5.5 -54t14.5 -50t29 -35q6 -4 10 -4q7 0 12 7.5t8 18t4.5 21t1.5 16.5q0 41 -1.5 81.5
t-1.5 81.5q0 26 0.5 53t0.5 53z" />
    <glyph glyph-name="Gbreve" unicode="&#x11e;" horiz-adv-x="351" 
d="M154 791q-25 0 -41.5 10t-26.5 25.5t-14 36t-4 41.5q0 13 5 27.5t21 14.5q14 0 21.5 -8t7.5 -22q0 -5 -1 -9.5t-1 -9.5q0 -20 6 -34.5t29 -14.5q12 0 19.5 7t11.5 17.5t5 22t1 20.5q0 11 4 23t18 12q17 0 24.5 -11t7.5 -26q0 -11 -0.5 -21.5t-3.5 -20.5
q-8 -31 -31.5 -55.5t-57.5 -24.5zM140 0q-43 0 -72 26q-25 24 -38.5 70t-19.5 98.5t-7 104t-1 84.5q0 37 0.5 81t5.5 88.5t16.5 85.5t33.5 72q17 23 40 38.5t52 15.5q17 0 34 -5.5t32 -13.5q24 -14 34.5 -42.5t10.5 -54.5q0 -17 -6.5 -33t-26.5 -16t-24.5 14.5t-6.5 32
t-7.5 32t-25.5 14.5q-6 0 -9 -3q-18 -23 -29 -65.5t-17 -90t-8 -93.5t-2 -76q0 -22 1.5 -43.5t3.5 -44.5q1 -17 3 -50t8.5 -66t20 -57.5t39.5 -24.5q9 0 14 14.5t7.5 33t3.5 36.5t1 25q0 75 -9 149q-11 -1 -22.5 -4.5t-23.5 -3.5q-15 0 -27 12t-12 27q0 13 7 20.5t17.5 11.5
t22.5 5.5t21 3.5q8 2 15 3t15 1q3 0 5.5 -0.5t4.5 -0.5q29 -5 36 -22t7 -42q0 -20 3 -38.5t4 -38.5q3 -45 3 -89q0 -34 -4.5 -66.5t-18 -58t-38.5 -41t-67 -15.5z" />
    <glyph glyph-name="gbreve" unicode="&#x11f;" horiz-adv-x="306" 
d="M129 576q-24 0 -40.5 10t-26.5 26t-14 36t-4 41q0 13 5.5 27.5t21.5 14.5q14 0 20.5 -8t6.5 -22q0 -5 -0.5 -9.5t-0.5 -9.5q0 -20 5.5 -34t29.5 -14q12 0 19 7t11 17.5t5 21.5t1 20q0 11 3.5 23.5t18.5 12.5q17 0 24 -11.5t7 -26.5q0 -10 -0.5 -21t-3.5 -21
q-8 -30 -31 -55t-57 -25zM112 -218q-14 0 -25.5 6t-21.5 15q-15 13 -25 34t-15 44.5t-7 47.5t-2 43q0 6 1 13t4 14t8 11.5t12 4.5q12 0 18 -8t8 -19t2 -23v-20q0 -10 1.5 -24.5t5 -29.5t9 -27.5t13.5 -18.5q2 -1 4 -2.5t4 -1.5q5 0 9.5 4.5t7.5 11t5 13.5t3 11q4 28 6 56.5
t2 56.5q-10 -5 -21 -5q-18 0 -34 11q-30 19 -46.5 48t-24.5 62.5t-9.5 69t-1.5 67.5q0 18 0.5 39.5t3 43.5t6 43t9.5 38q6 18 11 37t14 36q11 22 29 42t45 20q21 0 39 -4.5t33 -20.5q30 -30 30 -70v-246q0 -42 0.5 -83.5t0.5 -83.5q0 -14 -1.5 -28.5t-3.5 -28.5
q0 -2 -0.5 -5t-0.5 -6q-1 -23 -5.5 -55.5t-16.5 -62t-32 -50t-51 -20.5zM139 384q0 26 -0.5 51.5t-1.5 51.5h-6q-14 1 -22.5 -9t-13.5 -21q-25 -47 -32.5 -105t-7.5 -110q0 -20 1 -47t5.5 -54t14.5 -50t29 -35q6 -4 10 -4q7 0 12 7.5t8 18t4.5 21t1.5 16.5q0 41 -1.5 81.5
t-1.5 81.5q0 26 0.5 53t0.5 53z" />
    <glyph glyph-name="Gdotaccent" unicode="&#x120;" horiz-adv-x="351" 
d="M141 803q-16 0 -24 13t-8 27q0 17 9.5 28t26.5 11q14 0 25 -11.5t11 -25.5q0 -17 -11 -29.5t-29 -12.5zM140 0q-43 0 -72 26q-25 24 -38.5 70t-19.5 98.5t-7 103.5t-1 84q0 37 0.5 81t5.5 88.5t16.5 85.5t33.5 72q17 23 40 38.5t52 15.5q17 0 34 -5.5t32 -14.5
q24 -14 34.5 -42t10.5 -55q0 -17 -6.5 -32.5t-26.5 -15.5t-24.5 14.5t-6.5 32t-7.5 32t-25.5 14.5q-5 0 -9 -4q-18 -23 -29 -65t-17 -89.5t-8 -93t-2 -75.5q0 -23 1.5 -44.5t3.5 -43.5q1 -17 3 -50t8.5 -66t20 -57.5t39.5 -24.5q9 0 14 14.5t7.5 33t3.5 36.5t1 25
q0 75 -9 149q-11 -2 -22.5 -5t-23.5 -3q-15 0 -27 11.5t-12 27.5q0 13 7 20.5t17.5 11t22.5 5t21 3.5q8 2 15 3t15 1q7 0 10 -1q29 -5 36 -21.5t7 -42.5q0 -19 3 -38t4 -39q3 -44 3 -88q0 -34 -4.5 -66.5t-18 -58t-38.5 -41t-67 -15.5z" />
    <glyph glyph-name="gdotaccent" unicode="&#x121;" horiz-adv-x="306" 
d="M123 589q-16 0 -24 13t-8 27q0 17 9.5 28t26.5 11q14 0 24.5 -11.5t10.5 -25.5q0 -17 -11 -29.5t-28 -12.5zM112 -218q-14 0 -25.5 6t-21.5 15q-15 13 -25 34t-15 44.5t-7 47t-2 43.5q0 6 1 13t4 14t8 11.5t12 4.5q12 0 18 -8t8 -19t2 -23v-20q0 -10 1.5 -24.5t5 -29.5
t9 -27.5t13.5 -18.5q2 -1 4 -2.5t4 -1.5q5 0 9.5 4.5t7.5 11t5 13.5t3 11q4 28 6 56t2 57q-8 -5 -21 -5q-17 0 -34 10q-30 19 -46.5 48.5t-24.5 63t-9.5 68.5t-1.5 67q0 18 0.5 39.5t3 43t6 42.5t9.5 38q6 19 11 38t14 36q11 21 29 41.5t45 20.5q21 0 39 -4.5t33 -20.5
q30 -32 30 -71v-245q0 -42 0.5 -83.5t0.5 -83.5q0 -14 -1.5 -28t-3.5 -28q0 -3 -0.5 -5.5t-0.5 -5.5q-1 -24 -6 -56t-16.5 -61.5t-31.5 -50t-51 -20.5zM139 383q0 26 -0.5 51t-1.5 51l-6 1q-14 1 -22.5 -9.5t-13.5 -21.5q-25 -46 -32.5 -104t-7.5 -110q0 -20 1 -47t5.5 -54
t14.5 -50t29 -34q6 -4 10 -4q7 0 12 7.5t8 18t4.5 21t1.5 16.5q0 41 -1.5 81t-1.5 81q0 26 0.5 53t0.5 53z" />
    <glyph glyph-name="uni0122" unicode="&#x122;" horiz-adv-x="351" 
d="M139 -5q-20 0 -38.5 6t-32.5 20q-25 24 -38.5 70t-20 98.5t-7.5 104t-1 84.5q0 37 0.5 81.5t5.5 88.5t16.5 85.5t33.5 72.5q17 23 40 38.5t52 15.5q17 0 34 -5.5t32 -13.5q25 -14 35 -42.5t10 -55.5q0 -17 -6.5 -32.5t-26.5 -15.5t-24.5 14.5t-6.5 32t-7.5 32t-25.5 14.5
q-5 0 -8 -4q-19 -23 -30 -65.5t-17 -90t-8 -93t-2 -75.5q0 -23 1.5 -44.5t3.5 -43.5q1 -17 3 -50.5t8.5 -66.5t20 -57.5t39.5 -24.5q9 0 14 14.5t7.5 33t3.5 36.5t1 25q0 76 -9 150q-11 -2 -22.5 -5t-23.5 -3q-15 0 -27 11.5t-12 27.5q0 13 7 20.5t17.5 11.5t22.5 5t21 3
q8 2 15 3t15 1q7 0 11 -1q28 -5 35 -21.5t7 -41.5q0 -20 3 -39t4 -39q3 -45 3 -89q0 -34 -4.5 -66.5t-18 -58t-38.5 -41t-67 -15.5zM129 -143q-14 1 -22.5 13.5t-8.5 25.5q0 18 13.5 35.5t32.5 17.5q11 0 18 -6t11.5 -14.5t6.5 -18.5t2 -19q0 -15 -3.5 -30.5t-8.5 -30.5
q-8 -20 -12 -40q-2 -5 -2.5 -10.5t-2.5 -10.5q-2 -8 -6.5 -14t-14.5 -6q-9 0 -16.5 9.5t-7.5 17.5q0 6 2.5 17t6 23t7 23t5.5 18z" />
    <glyph glyph-name="uni0123" unicode="&#x123;" horiz-adv-x="306" 
d="M124 584q-11 0 -17.5 6t-11 15t-6 19t-1.5 18q0 24 8 48.5t15 47.5q2 8 3.5 15t3.5 15q2 7 8.5 13.5t13.5 6.5q10 0 15 -9.5t5 -18.5q0 -6 -2.5 -17.5t-6 -24t-7.5 -24t-6 -18.5q14 0 23.5 -12.5t9.5 -26.5q0 -9 -4 -18t-10.5 -17t-15 -13t-17.5 -5zM112 -218
q-14 0 -25.5 6t-21.5 15q-15 13 -25 34t-15 44.5t-7 47.5t-2 43q0 6 1 13t4 14t8 11.5t12 4.5q12 0 18 -8t8 -19t2 -23v-20q0 -10 1.5 -24.5t5 -29t9 -27.5t13.5 -19q2 -1 4 -2.5t4 -1.5q5 0 9.5 4.5t7.5 11t5 13.5t3 11q4 28 6 56.5t2 56.5q-10 -5 -21 -5q-9 0 -17.5 3
t-16.5 8q-30 19 -46.5 48.5t-24.5 63t-9.5 68.5t-1.5 67q0 37 3.5 83.5t15.5 80.5q6 18 11 37t14 36q11 22 29 42.5t45 20.5q21 0 39 -4.5t33 -20.5q30 -32 30 -71v-246q0 -42 0.5 -83.5t0.5 -83.5q0 -14 -1.5 -28t-3.5 -28q0 -3 -0.5 -6t-0.5 -6q-1 -23 -5.5 -55.5
t-16.5 -62t-32 -50t-51 -20.5zM139 385q0 26 -0.5 51t-1.5 51l-6 1q-14 0 -22.5 -10t-13.5 -21q-25 -47 -32.5 -105t-7.5 -110q0 -20 1 -47t5.5 -54t14.5 -50t29 -35q4 -3 10 -3q7 0 12 7.5t8 18t4.5 21t1.5 15.5q0 42 -1.5 82t-1.5 81q0 27 0.5 53.5t0.5 53.5z" />
    <glyph glyph-name="Hcircumflex" unicode="&#x124;" horiz-adv-x="350" 
d="M189 804q-13 0 -19 11q-9 15 -15.5 34t-12.5 35q-8 -17 -15.5 -33.5t-15.5 -33.5q-3 -5 -7 -9.5t-11 -4.5q-8 0 -19.5 7t-11.5 17q0 4 8 23t18 41t19.5 41t13.5 24t8.5 9t11.5 4q8 0 13.5 -5t9.5 -12q3 -6 11.5 -24.5t17 -39t15 -38t6.5 -22.5q0 -10 -7.5 -17t-17.5 -7z
M206 436q-1 74 -2.5 147.5t-1.5 148.5q0 12 5.5 21.5t19.5 9.5q20 0 28 -12.5t9 -29.5q3 -70 3.5 -139.5t0.5 -139.5q0 -77 1 -153t1 -153q0 -26 2 -52.5t2 -52.5q0 -11 -5.5 -20t-18.5 -9q-5 0 -9 -1.5t-9 -1.5q-11 0 -17 7t-6 17q0 16 0.5 31t0.5 31q0 67 -1.5 134
t-2.5 135v15q-25 -1 -49.5 -1h-49.5v-37q-1 -54 0.5 -107.5t1.5 -107.5q0 -9 -0.5 -18t-0.5 -18q0 -7 0.5 -13t0.5 -13q0 -21 -1.5 -32.5t-7.5 -16.5t-18 -5.5t-32 -0.5q-15 0 -30 5l-9 9q-2 12 -3 24t-1 24v340q0 20 -1.5 40t-1.5 40q0 56 -0.5 111t-0.5 111q0 21 2.5 33
t9.5 17t19.5 6t33.5 1q11 0 20.5 -3.5t14.5 -14.5q3 -8 3.5 -15t0.5 -15q0 -70 1 -139t0 -138q8 -1 15.5 -1h15.5q17 0 33.5 1t33.5 1z" />
    <glyph glyph-name="hcircumflex" unicode="&#x125;" horiz-adv-x="330" 
d="M169 864q-12 0 -18 11q-9 15 -15.5 34t-12.5 35q-8 -17 -15.5 -33.5t-15.5 -33.5q-7 -14 -18 -14q-8 0 -19.5 7t-11.5 17q0 4 8 23t18 40.5t19.5 41t13.5 24.5t8.5 9t11.5 4q8 0 13.5 -5t9.5 -12q3 -6 11 -24.5t17 -39t15.5 -38.5t6.5 -22q0 -10 -7.5 -17t-18.5 -7z
M236 -2q-18 0 -29.5 3t-11.5 24q0 85 1.5 168t1.5 168q0 10 -0.5 29.5t-2.5 40.5t-5.5 38.5t-10.5 23.5q-4 4 -7.5 4.5t-8.5 0.5q-12 0 -21.5 -7.5t-16.5 -18t-11.5 -22.5t-7.5 -22q-2 -4 -2 -8q-2 -24 -1.5 -47.5t-0.5 -46.5q-1 -50 -2 -98.5t-1 -98.5q0 -13 -1 -25.5
t-1 -25.5t0.5 -26t0.5 -26q0 -15 -8.5 -20.5t-22.5 -5.5q-8 0 -16 -1t-16 -1q-12 0 -18.5 5t-9 13t-3 17.5t-0.5 18.5q0 48 2 94t3 93q2 88 3.5 174t1.5 174q0 42 -1 82.5t-1 82.5q0 18 0.5 31.5t6 22.5t16.5 13.5t32 4.5q20 0 28 -10.5t9 -29.5q2 -60 1.5 -120.5
t-0.5 -120.5q27 21 57 21q37 0 57 -20.5t29 -50t10.5 -63t1.5 -59.5q0 -51 -1 -101t-1 -101v-145q0 -10 -5.5 -18t-16.5 -8z" />
    <glyph glyph-name="Hbar" unicode="&#x126;" horiz-adv-x="438" 
d="M336 581q2 -35 1.5 -68t-0.5 -68q0 -76 1 -152t1 -152q0 -26 2 -52.5t2 -52.5q0 -11 -6 -19.5t-18 -8.5q-4 0 -8 -1t-8 -1q-13 0 -19 8t-6 19q0 78 -2.5 154.5t-2.5 154.5v31q-26 0 -51 -0.5t-50 -0.5v-36q-1 -53 0.5 -104.5t1.5 -104.5q0 -10 -0.5 -19.5t-0.5 -20.5
q0 -7 0.5 -13.5t0.5 -13.5q0 -22 -2 -33t-8.5 -16t-18.5 -5.5t-32 -0.5q-14 0 -31 5l-9 9q-2 11 -3 23.5t-1 24.5q0 55 -0.5 110t-0.5 110q0 29 0.5 59t0.5 59q0 24 -1.5 48.5t-1.5 48.5q0 17 0.5 35t0.5 35v11q-10 0 -20.5 -1t-19 1t-14 8t-5.5 20q0 17 3.5 24.5t10.5 10
t18 2t26 -0.5q0 20 -0.5 39t-0.5 39q0 15 6 23t16 11t22 3h23h3q26 0 31.5 -14t5.5 -36q0 -17 -0.5 -33t-0.5 -33h4h96q0 23 -1 44.5t-1 44.5q0 12 5.5 21.5t19.5 9.5q20 0 29 -11.5t10 -30.5l2 -79h43q15 1 25 -5.5t10 -23.5q0 -19 -7 -27.5t-27 -8.5h-21.5t-21.5 1z
M273 440l-1 141q-22 1 -43 1t-43 1h-14q0 -36 0.5 -72t0.5 -72q8 0 16 -0.5t16 -0.5q17 0 34 1t34 1z" />
    <glyph glyph-name="hbar" unicode="&#x127;" horiz-adv-x="375" 
d="M319 21q0 -11 -5.5 -18.5t-16.5 -7.5h-16.5t-13.5 2t-9 8t-3 17q0 84 1.5 166.5t1.5 167.5q0 10 -0.5 28.5t-2.5 38.5t-5.5 37t-10.5 23q-6 5 -16 5q-14 0 -23.5 -9t-16.5 -20q-2 -3 -5 -10t-6 -14.5t-5.5 -14t-2.5 -9.5q0 -72 -2.5 -143.5t-2.5 -143.5q0 -17 -1 -34.5
t-1 -35.5q0 -6 0.5 -12t0.5 -13q0 -32 -32 -32q-8 0 -16 -0.5t-16 -0.5q-17 0 -23 8.5t-6 24.5q0 146 4 290.5t4 290.5h-51q-10 0 -16 6.5t-6 16.5v18q0 4 0.5 7.5t2.5 7.5q3 5 12 7t20 2.5t21 -0.5t16 -1q0 16 -0.5 31.5t-0.5 31.5q0 18 0.5 31.5t6 22.5t17 13.5t32.5 4.5
q20 0 28 -10.5t9 -29.5q1 -24 1 -48v-48q12 0 24.5 -0.5t24.5 -0.5q29 0 29 -30v-14q-1 -11 -10.5 -15.5t-22 -5.5t-25 0t-19.5 1v-76q26 21 56 21q36 0 56 -19t29.5 -47.5t11.5 -61t2 -58.5q0 -87 -1.5 -173t-0.5 -173z" />
    <glyph glyph-name="Itilde" unicode="&#x128;" horiz-adv-x="358" 
d="M174 845q4 5 7 13q11 21 11 49q0 11 5 21t18 10q12 0 18.5 -7.5t6.5 -18.5q0 -13 -3.5 -33t-11 -39t-19.5 -32.5t-29 -13.5t-28 6.5t-18.5 17t-13 22.5t-12.5 24q-2 -5 -5 -14t-7 -17t-9 -14t-12 -6q-12 0 -17.5 9t-5.5 19q0 11 4 25t11 26t17 20.5t23 8.5q15 0 25.5 -11
t18.5 -24.5t14 -26t12 -14.5zM161 -6q-27 0 -53.5 2.5t-53.5 2.5q-6 0 -12 -0.5t-11 -0.5q-12 0 -25.5 4t-13.5 19q0 22 12.5 27.5t30.5 5.5h57v46q2 221 -6 442q-2 40 -3 79l-2 78h-2h-34.5t-33.5 4q-24 4 -24 29q0 12 8 19t19 7h104q8 0 16.5 -1t16.5 -1q17 0 35 -1t35 -1
q7 0 14 0.5t14 0.5q11 0 22.5 -5.5t11.5 -18.5q0 -23 -14.5 -28t-32.5 -5q-12 0 -24 0.5t-24 0.5v-36q0 -42 2.5 -84.5t2.5 -84.5q2 -111 2 -220v-220h30q9 0 20 -0.5t20.5 -3t15.5 -9.5t6 -20q0 -12 -8 -19t-20 -7q-25 0 -49 -0.5t-49 -0.5z" />
    <glyph glyph-name="itilde" unicode="&#x129;" horiz-adv-x="188" 
d="M122 628q3 8 7 13q10 21 10 49q0 11 5 21t17 10t18 -7.5t6 -18.5q0 -13 -3.5 -33t-10.5 -38.5t-18.5 -32t-27.5 -13.5q-17 0 -27.5 6.5t-18 16.5t-13 22.5t-11.5 23.5q-2 -5 -4.5 -13.5t-6.5 -17t-9 -14.5t-12 -6q-11 0 -16.5 9.5t-5.5 19.5t3.5 24t10.5 26t17 20.5
t23 8.5q14 0 24 -11t17.5 -24.5t13.5 -25.5t12 -15zM124 35q0 -20 -14 -27.5t-32 -7.5q-22 0 -31 10.5t-9 31.5q0 38 2 75.5t2 75.5v326q0 20 8.5 28t28.5 8q5 0 10.5 -0.5t10.5 -1.5q16 -2 21 -10t5 -24q0 -39 0.5 -78.5t0.5 -79.5q0 -82 -1.5 -163t-1.5 -163z" />
    <glyph glyph-name="Imacron" unicode="&#x12a;" horiz-adv-x="358" 
d="M64 797q-12 0 -20 8.5t-8 19.5q0 28 29 28h164q11 0 17.5 -7.5t6.5 -18.5q0 -16 -9 -22t-23 -7q-23 -1 -45 -0.5t-45 0.5q-17 0 -33.5 -0.5t-33.5 -0.5zM171 -6q-27 0 -53.5 2.5t-53.5 2.5q-6 0 -12 -0.5t-11 -0.5q-12 0 -25.5 4t-13.5 19q0 22 12.5 27.5t30.5 5.5h57v46
q1 220 -6 441q-2 39 -3 78.5t-2 78.5h-2q-15 0 -34.5 -0.5t-33.5 3.5q-24 6 -24 30q0 12 8 19t19 7h104q8 0 16.5 -1t16.5 -1q17 0 35 -1t35 -1q7 0 14 0.5t14 0.5q11 0 22.5 -6t11.5 -18q0 -23 -14.5 -28t-32.5 -5h-48v-35q0 -43 2.5 -85t2.5 -84q2 -110 2 -219.5v-219.5
h30q9 0 20 -0.5t20.5 -3t15.5 -9.5t6 -20q0 -12 -8 -19t-20 -7q-25 0 -49 -0.5t-49 -0.5z" />
    <glyph glyph-name="imacron" unicode="&#x12b;" horiz-adv-x="210" 
d="M18 591q-12 0 -19.5 8t-7.5 20q0 28 28 28h160q11 0 17 -8t6 -18q0 -29 -31 -29q-22 -2 -44 -1t-44 1q-16 0 -32 -0.5t-33 -0.5zM134 35q0 -20 -14.5 -27.5t-31.5 -7.5q-41 0 -41 42q0 38 1.5 75t1.5 75v325q1 20 9.5 28t28.5 8h10.5t10.5 -2q17 -2 22 -9.5t5 -23.5
q0 -40 0.5 -79.5t0.5 -78.5q0 -81 -1.5 -162.5t-1.5 -162.5z" />
    <glyph glyph-name="Iogonek" unicode="&#x12e;" horiz-adv-x="376" 
d="M252 -2h-71q-13 -13 -21.5 -22.5t-8.5 -29.5q0 -11 4 -18.5t16 -7.5q8 0 15 2.5t15 2.5q11 0 17.5 -7.5t6.5 -18.5q0 -10 -6 -16.5t-14.5 -10.5t-18.5 -6t-18 -2q-17 0 -30 7t-22 19t-13.5 27t-4.5 30q0 14 3 28t11 26q-18 1 -36 0.5t-37 -0.5q-11 0 -23 4.5t-12 18.5
q0 22 12.5 27.5t31.5 5.5h57v44q0 111 -1.5 220.5t-5.5 220.5q-2 39 -3 77.5t-1 77.5q-17 0 -36 -0.5t-35 3.5q-23 6 -23 29q0 13 7.5 20t19.5 7h103q26 0 51 -2t51 -2q6 0 12 0.5t12 0.5q12 0 24.5 -4.5t12.5 -19.5q0 -23 -14 -28t-32 -5h-24t-24 1v-5q0 -50 2.5 -99.5
t3.5 -99.5q1 -110 1.5 -218.5t0.5 -217.5h17q10 0 23 0.5t24 -2t19 -9.5t8 -21q0 -21 -15.5 -24t-30.5 -3z" />
    <glyph glyph-name="iogonek" unicode="&#x12f;" horiz-adv-x="149" 
d="M48 619q-11 0 -19.5 6t-14 15t-8.5 19.5t-3 20.5q0 18 9.5 36.5t31.5 18.5t33 -18.5t11 -38.5q0 -9 -2 -19t-7 -19t-12.5 -15t-18.5 -6zM52 -135q-17 0 -29 7t-20 18.5t-11.5 26t-3.5 29.5q0 17 4.5 33t13.5 30q-4 6 -4.5 13t-0.5 14q0 37 1.5 73.5t1.5 74.5v340
q0 15 14 20.5t26 5.5q6 0 12 -0.5t11 -3.5q10 -5 13 -14t3 -19q0 -41 0.5 -81.5t0.5 -81.5q0 -81 -2 -160.5t-2 -160.5q0 -8 -2 -14.5t-9 -11.5q-5 -11 -10.5 -15t-10.5 -8.5t-8 -11.5t-3 -24q0 -9 3 -16.5t14 -7.5q4 0 7.5 1t7.5 2q4 3 12 3q10 0 15.5 -7.5t5.5 -17.5
q0 -20 -16.5 -28t-33.5 -8z" />
    <glyph glyph-name="Idotaccent" unicode="&#x130;" horiz-adv-x="358" 
d="M132 803q-16 0 -24.5 13t-8.5 27q0 17 10 28t27 11q14 0 25 -11.5t11 -25.5q0 -17 -11 -29.5t-29 -12.5zM161 -6q-27 0 -53.5 2.5t-53.5 2.5q-6 0 -12 -0.5t-11 -0.5q-12 0 -25.5 4t-13.5 19q0 22 12.5 27.5t30.5 5.5h57v46q1 220 -6 442q-2 39 -3 78l-2 78h-2h-34.5
t-33.5 4q-24 6 -24 29q0 12 8 19t19 7h104q8 0 16.5 -1t16.5 -1q17 0 35 -1t35 -1q7 0 14 0.5t14 0.5q11 0 22.5 -5.5t11.5 -18.5q0 -23 -14.5 -28t-32.5 -5q-12 0 -24 0.5t-24 0.5v-36q0 -42 2.5 -84t2.5 -85q2 -110 2 -219.5v-219.5h30q9 0 20 -0.5t20.5 -3t15.5 -9.5
t6 -20q0 -12 -8 -19t-20 -7q-25 0 -49 -0.5t-49 -0.5z" />
    <glyph glyph-name="dotlessi" unicode="&#x131;" horiz-adv-x="168" 
d="M78 35q0 -19 -11.5 -27t-28.5 -8q-21 0 -28.5 11.5t-7.5 30.5q0 38 1.5 74.5t1.5 74.5v324q0 17 7 26t26 9h9.5t9.5 -1q15 -3 19 -11.5t4 -22.5q0 -39 0.5 -78.5t0.5 -78.5q0 -81 -1.5 -161.5t-1.5 -161.5z" />
    <glyph glyph-name="IJ" unicode="&#x132;" horiz-adv-x="729" 
d="M650 691q-14 0 -28 2t-28 3v-4q0 -21 1.5 -42t2.5 -43q2 -29 3 -58.5t1 -59.5q1 -71 2 -141.5t1 -141.5q0 -22 -1.5 -50.5t-7.5 -56t-18.5 -50.5t-34.5 -35q-26 -14 -55 -14q-17 0 -33.5 1.5t-31.5 7.5q-29 11 -45 37.5t-23.5 59t-9.5 66t-3 59.5q0 10 -0.5 19.5
t-0.5 19.5q0 14 7.5 23t21.5 9q12 0 19 -8.5t9 -19.5t2.5 -30.5t1.5 -42.5t3 -46.5t7.5 -43t15 -32t26.5 -12.5q23 0 32 11.5t13 31.5q5 27 5.5 55t0.5 57q0 23 1 46t1 46q0 97 -4 193.5t-6 193.5q-14 -1 -28 -0.5t-28 2.5q-27 3 -27 30q0 12 9 19.5t20 7.5h42t53.5 -0.5
t53.5 -2t43 -4.5q12 -2 27 -9t15 -21q0 -13 -6.5 -22.5t-20.5 -9.5zM181 -6q-28 0 -55.5 2t-55.5 2h-24q-11 0 -25.5 4t-14.5 19q0 23 13 28t32 5h59v46q0 111 -1.5 220t-5.5 220q-2 39 -3 78l-2 78h-2q-16 0 -35.5 -0.5t-35.5 3.5q-24 6 -24 30q0 12 8 19t20 7h107
q9 0 17.5 -1t17.5 -1q18 0 36 -1.5t36 -1.5q8 0 15 1t14 1q11 0 23 -5.5t12 -18.5q0 -24 -15 -28.5t-34 -4.5h-49v-35q-1 -42 2 -84t3 -84q2 -110 2 -219v-219h15.5t15.5 -1h20.5t21.5 -2.5t16.5 -9.5t6.5 -20q0 -12 -9 -19q-8 -7 -21 -7q-25 0 -50 -0.5t-51 -0.5z" />
    <glyph glyph-name="ij" unicode="&#x133;" horiz-adv-x="332" 
d="M210 601q-12 0 -21 6t-15 15.5t-9.5 20.5t-3.5 21q0 20 11 38t34 18t36 -18.5t13 -39.5q0 -10 -2.5 -20.5t-8 -19.5t-14 -15t-20.5 -6zM56 616q-12 0 -21 6t-15 15t-9.5 20t-3.5 21q0 20 11 38t34 18t36 -18t13 -39q0 -10 -2.5 -21t-8 -20t-14 -14.5t-20.5 -5.5z
M144 -187q-14 0 -26 2.5t-22 12.5q-21 21 -30 51.5t-9 59.5q0 6 0.5 14t3 15t7.5 11.5t14 4.5q14 0 21 -8.5t7 -21.5q0 -6 -1 -11.5t-1 -11.5q0 -9 2 -23.5t7 -22.5q2 -4 5.5 -7t5.5 -7q3 1 6 4t5 6q12 14 19 38t10 51t4 53t1 44q0 23 -0.5 45.5t-1.5 45.5q-1 29 -0.5 57
t-1.5 57q-2 57 -3 114t-1 114q0 23 9.5 32.5t31.5 9.5q7 0 14.5 -0.5t13.5 -3.5q12 -6 15 -17.5t4 -23.5q2 -20 3.5 -39t1.5 -39q0 -26 -1 -50.5t-1 -50.5q0 -11 1 -21.5t1 -21.5q0 -37 0.5 -73.5t0.5 -73.5q0 -19 -0.5 -38t-0.5 -38q-1 -30 -2.5 -57.5t-7 -53t-17.5 -50
t-34 -48.5q-10 -12 -23.5 -21t-29.5 -9zM92 32q0 -21 -14.5 -28.5t-31.5 -7.5q-23 0 -32.5 10.5t-9.5 31.5q0 38 2 76t2 76v328q0 20 9 28t29 8h11t11 -2q17 -2 21.5 -9.5t4.5 -24.5q0 -40 1 -79.5t1 -79.5q0 -82 -2 -163.5t-2 -163.5z" />
    <glyph glyph-name="Jcircumflex" unicode="&#x134;" horiz-adv-x="363" 
d="M247 804q-11 0 -19 11q-9 15 -15.5 34t-12.5 35q-8 -17 -16 -33.5t-16 -33.5q-3 -6 -6.5 -10t-11.5 -4t-19.5 7t-11.5 17q0 4 8 23t18 40.5t20 41t14 24.5t8.5 9t11.5 4q8 0 13.5 -5t9.5 -12q3 -6 11.5 -24.5t17.5 -39t15.5 -38t6.5 -22.5q0 -10 -8 -17t-18 -7zM299 695
q-14 0 -26.5 2t-26.5 3v-4q0 -21 1 -42.5t2 -42.5q2 -30 3 -59.5t1 -59.5q1 -72 2 -142.5t1 -142.5q0 -22 -1 -50.5t-7 -56t-18 -51t-34 -35.5q-12 -6 -26 -10t-28 -4q-16 0 -32 1.5t-31 7.5q-28 11 -43.5 37.5t-22.5 59.5t-9 67t-3 60q0 10 -0.5 19.5t-0.5 19.5q0 13 7 22
t21 9q12 0 18.5 -8t8.5 -19t2.5 -30.5t1.5 -42.5t3 -47t7.5 -44t15 -32.5t25.5 -12.5q22 0 30.5 12t12.5 31q5 28 5.5 56.5t0.5 56.5q0 23 1 46t1 46q0 98 -4 195t-6 195q-14 -1 -27.5 -0.5t-26.5 2.5q-26 3 -26 30q0 12 8.5 19.5t19.5 7.5h40t52 -0.5t52.5 -2t42.5 -4.5
q11 -2 25.5 -9t14.5 -21q0 -13 -6.5 -22.5t-20.5 -9.5z" />
    <glyph glyph-name="jcircumflex" unicode="&#x135;" horiz-adv-x="211" 
d="M135 604q-13 0 -19 11q-9 15 -15 34t-12 35q-8 -17 -15.5 -33.5t-15.5 -33.5q-3 -5 -7 -9.5t-11 -4.5q-8 0 -19.5 7t-11.5 17q0 4 8 23t18 40.5t19.5 41t13.5 24.5t8.5 9t11.5 4q8 0 13.5 -5t8.5 -12q3 -6 11.5 -24.5t17 -39t15 -38t6.5 -22.5q0 -10 -7.5 -17t-17.5 -7z
M22 -187q-13 0 -25 2.5t-22 12.5q-21 21 -30 51.5t-9 59.5q0 6 0.5 14t3 15t7.5 11.5t14 4.5q14 0 21 -8.5t7 -21.5q0 -5 -1 -11t-1 -12q0 -9 2 -23.5t7 -22.5q2 -3 5 -6.5t5 -7.5q3 1 6 4t5 6q12 14 19 38t10 51t4 53t1 44q0 23 -0.5 45.5t-1.5 45.5q-1 29 -0.5 57t-1.5 57
q-2 57 -3 114t-1 114q0 23 9.5 32.5t31.5 9.5q7 0 14 -0.5t13 -3.5q13 -6 15.5 -17.5t4.5 -23.5q2 -20 3 -39t1 -39q0 -25 -1 -50t-1 -50q0 -11 1 -21.5t1 -21.5q0 -38 0.5 -74.5t0.5 -73.5v-37.5t-1 -38.5q-1 -30 -2.5 -57.5t-7 -53t-17.5 -50t-33 -48.5q-10 -12 -23.5 -21
t-29.5 -9z" />
    <glyph glyph-name="uni0136" unicode="&#x136;" horiz-adv-x="358" 
d="M273 -6q-10 0 -16 6t-9 14t-5 15.5t-4 15.5q-4 14 -8 27t-8 27q-37 150 -91 294q-7 -12 -13.5 -24t-12.5 -24q1 -35 0.5 -69t1.5 -68q1 -42 3 -84t2 -84q0 -19 -5 -27.5t-13.5 -11.5t-20 -2.5t-25.5 0.5q-5 0 -9 -0.5t-9 -0.5q-14 0 -20.5 8t-6.5 21q0 14 0.5 27.5
t0.5 27.5q0 124 -1.5 246t-1.5 246q0 39 1 77.5t1 77.5q0 18 9.5 23.5t25.5 5.5q6 0 12.5 -0.5t12.5 -0.5h18t13.5 -3t8.5 -9.5t3 -19.5q0 -63 -1 -125.5t-1 -125.5q20 39 38 79t38 80l6 12q3 7 9 23t12.5 32.5t13 30.5t10.5 19q6 9 18 9t24 -8t12 -21q0 -7 -7 -26.5
t-18.5 -45t-25 -55t-26.5 -57t-23.5 -50t-15.5 -34.5q19 -48 37.5 -95.5t33.5 -97.5q13 -41 23.5 -82t22.5 -83q2 -6 5.5 -17t6.5 -22.5t5.5 -22t2.5 -16.5q0 -14 -10 -23t-24 -9zM171 -125q-14 1 -22.5 13.5t-8.5 25.5q0 18 13.5 35.5t32.5 17.5q11 0 18 -6t11.5 -14.5
t6.5 -18.5t2 -19q0 -15 -3.5 -30.5t-8.5 -30.5q-8 -20 -12 -40q-2 -5 -2.5 -10.5t-2.5 -10.5q-2 -8 -6.5 -14t-14.5 -6q-9 0 -16.5 9.5t-7.5 17.5q0 6 2.5 17t6 23t7 23t5.5 18z" />
    <glyph glyph-name="uni0137" unicode="&#x137;" horiz-adv-x="304" 
d="M148 310q20 -56 37 -111.5t34 -112.5q2 -6 6 -15.5t7.5 -19.5t6 -19.5t2.5 -15.5q0 -12 -8 -20t-21 -8q-17 0 -26 14.5t-14 28.5q-17 51 -31.5 103t-31.5 104l-16 -29v-19l1 -11v-29q0 -34 1 -68t1 -68q0 -14 -10 -19t-22 -5h-18t-19 2.5t-15.5 8.5t-6.5 17q0 17 -1.5 33
t-1.5 32q0 56 2 110.5t2 110.5q0 115 -2 229.5t-2 229.5q0 26 13.5 31t35.5 5q17 0 30 -7.5t13 -27.5v-310q0 -28 -0.5 -55.5t-1.5 -55.5q21 39 42.5 77t41.5 76q4 7 9.5 16.5t10.5 14.5q8 8 19 8q13 0 21.5 -10t8.5 -22q0 -5 -1 -9.5t-3 -9.5q-3 -8 -8 -17q-20 -40 -42 -79
t-43 -78zM127 -150q-14 1 -22.5 13.5t-8.5 25.5q0 18 13.5 35.5t32.5 17.5q11 0 18 -6t11.5 -14.5t6.5 -18.5t2 -19q0 -15 -3.5 -30.5t-8.5 -30.5q-8 -20 -12 -40q-2 -5 -2.5 -10.5t-2.5 -10.5q-2 -8 -6.5 -14t-14.5 -6q-9 0 -16.5 9.5t-7.5 17.5q0 6 2.5 17t6 23t7 23
t5.5 18z" />
    <glyph glyph-name="kgreenlandic" unicode="&#x138;" horiz-adv-x="344" 
d="M271 0q-14 0 -22 13q-2 3 -5.5 10.5t-7.5 16.5t-7 17t-4 12q-11 31 -24 61.5t-27 59.5q-10 18 -19.5 36t-19.5 37q-8 -8 -15 -16t-14 -18q1 -22 1 -43.5t1 -43.5q2 -27 3.5 -54.5t1.5 -54.5q0 -22 -11 -26t-29 -4h-36q-27 0 -26 25q1 8 1 16.5v16.5q0 63 -0.5 126.5
t-0.5 126.5q0 17 -0.5 34t-0.5 34v71q0 4 0.5 15t1.5 13v1q0 14 10 17t21 3h13t18.5 -0.5t17.5 -2t10 -4.5q5 -6 5 -19q0 -42 -0.5 -82.5t-1.5 -82.5q9 12 17.5 24t17.5 24q12 17 25.5 35t24.5 35q3 5 8.5 15t12 20.5t12.5 20t10 12.5q6 6 16 6t21 -5.5t11 -17.5
q0 -7 -15 -31t-34.5 -52.5t-38 -54t-24.5 -35.5l36 -60t32 -62t28 -68q3 -6 9 -19.5t12 -28.5l11 -27.5t5 -17.5q0 -12 -10 -18t-21 -6z" />
    <glyph glyph-name="Lacute" unicode="&#x139;" horiz-adv-x="264" 
d="M57 810q-11 0 -18.5 9t-7.5 20q0 6 5.5 16t12.5 21t14.5 20.5t11.5 15.5q4 5 6.5 11t6.5 11q5 7 11.5 12.5t14.5 5.5q11 0 18.5 -8.5t7.5 -18.5q0 -5 -8 -19.5t-18.5 -30.5t-20.5 -30.5t-14 -20.5q-9 -14 -22 -14zM192 0q-20 0 -38.5 0.5t-37.5 0.5q-15 0 -29.5 -0.5
t-29.5 -0.5q-19 0 -29.5 1.5t-16 7.5t-6.5 17t-1 29q0 61 -0.5 122t-0.5 123q0 106 1 209.5t1 208.5q0 17 1 26.5t6 14t14.5 5.5t26.5 1q10 0 21.5 -2.5t16.5 -12.5q1 -2 2 -22t1 -49v-64t-0.5 -66.5t-0.5 -56v-33.5q0 -27 1 -53.5t1 -52.5q0 -27 -1 -54t-1 -54v-147
q0 -11 0.5 -21t0.5 -21h76q5 0 10.5 0.5t10.5 0.5q17 0 23 -9.5t6 -24.5q0 -12 -9 -17.5t-19 -5.5z" />
    <glyph glyph-name="lacute" unicode="&#x13a;" horiz-adv-x="137" 
d="M37 881q-11 0 -17.5 9.5t-6.5 19.5q0 6 5 16t11.5 21t13.5 21t10 16q4 5 6.5 11t6.5 11q4 6 10 11.5t14 5.5q11 0 17.5 -8.5t6.5 -18.5q0 -5 -7.5 -19t-17 -30t-18.5 -31t-13 -21q-4 -5 -8.5 -9.5t-12.5 -4.5zM39 -1q-14 0 -26 6t-12 23q0 67 1.5 133t1.5 133v166
q0 81 -1.5 160t-1.5 160q0 20 7 28.5t27 8.5t29 -6.5t9 -28.5q0 -93 -1 -184t-1 -184v-123q0 -64 1.5 -127t1.5 -127q0 -23 -6.5 -30.5t-28.5 -7.5z" />
    <glyph glyph-name="uni013B" unicode="&#x13b;" horiz-adv-x="264" 
d="M192 -5q-20 0 -38.5 0.5t-37.5 0.5q-15 0 -29.5 -1t-29.5 -1q-19 0 -29.5 2t-16 7.5t-6.5 16.5t-1 29q0 62 -0.5 123t-0.5 123q0 106 1 209.5t1 209.5q0 17 1 26.5t6 14t14.5 5.5t26.5 1q10 0 21.5 -2.5t16.5 -12.5q1 -2 2 -22t1 -49.5v-64t-0.5 -66t-0.5 -56.5v-34
q0 -26 1 -52.5t1 -53.5t-1 -54t-1 -54v-147q0 -11 0.5 -21t0.5 -21h76q5 0 10.5 0.5t10.5 0.5q17 0 23 -9.5t6 -25.5q0 -11 -9 -16.5t-19 -5.5zM95 -158q-14 1 -23 13.5t-9 25.5q0 18 14 35.5t33 17.5q11 0 18 -6t11.5 -14.5t6.5 -18.5t2 -19q0 -15 -4 -30.5t-9 -29.5
q-3 -11 -6 -20.5t-6 -20.5q-1 -5 -1.5 -10.5t-2.5 -10.5q-2 -8 -7 -14t-14 -6t-16.5 9.5t-7.5 17.5q0 6 2.5 17t6 23t7 23t5.5 18z" />
    <glyph glyph-name="uni013C" unicode="&#x13c;" horiz-adv-x="137" 
d="M45 -6q-14 0 -25 6t-11 22q0 67 1.5 133.5t1.5 133.5v177q0 78 -1.5 155t-1.5 155q0 19 6.5 28t26.5 9t27.5 -7.5t7.5 -27.5q0 -93 -0.5 -184.5t-0.5 -184.5v-123q0 -64 1 -127.5t1 -126.5q0 -23 -6 -30.5t-27 -7.5zM36 -187q-14 1 -23 13.5t-9 25.5q0 18 14 35.5
t33 17.5q11 0 18 -6t11.5 -14.5t6.5 -18.5t2 -19q0 -15 -4 -30.5t-9 -29.5q-3 -11 -6 -20.5t-6 -20.5q-1 -5 -1.5 -10.5t-2.5 -10.5q-2 -8 -7 -14t-14 -6t-16.5 9.5t-7.5 17.5q0 6 2.5 17t6 23t7 23t5.5 18z" />
    <glyph glyph-name="Lcaron" unicode="&#x13d;" horiz-adv-x="264" 
d="M192 0q-20 0 -38.5 0.5t-37.5 0.5q-15 0 -29.5 -0.5t-29.5 -0.5q-19 0 -29.5 1.5t-16 7.5t-6.5 16.5t-1 28.5q0 62 -0.5 122.5t-0.5 122.5q0 104 1 207.5t1 207.5q0 18 1 27.5t6 14t14.5 5t26.5 0.5q10 0 21.5 -2.5t16.5 -11.5q1 -3 2 -22.5t1 -49v-64t-0.5 -66t-0.5 -56
v-33.5q0 -26 1 -52.5t1 -52.5q0 -27 -1 -53.5t-1 -53.5v-146q0 -11 0.5 -21t0.5 -21h76q5 0 10.5 0.5t10.5 0.5q17 0 23 -9.5t6 -24.5q0 -12 -9 -17.5t-19 -5.5zM163 639q-14 1 -23 13.5t-9 25.5q0 18 14 35.5t33 17.5q11 0 18 -6t11.5 -14.5t6.5 -18.5t2 -19
q0 -15 -4 -30.5t-9 -29.5q-3 -11 -6 -20.5t-6 -20.5q-1 -5 -1.5 -10.5t-2.5 -10.5q-2 -8 -7 -14t-14 -6t-16.5 9.5t-7.5 17.5q0 6 2.5 17t6 23t7 23t5.5 18z" />
    <glyph glyph-name="lcaron" unicode="&#x13e;" horiz-adv-x="200" 
d="M41 -1q-14 0 -27 6t-13 23q0 66 1.5 132t1.5 133v165q0 80 -1.5 159t-1.5 159q0 20 8 28.5t28 8.5t30 -6t10 -29q0 -92 -1 -183t-1 -183v-123q0 -63 1.5 -126t1.5 -126q0 -24 -7.5 -31t-29.5 -7zM131 710q-14 1 -23 13.5t-9 25.5q0 18 14 35.5t33 17.5q11 0 18 -6
t11.5 -14.5t6.5 -18.5t2 -19q0 -15 -4 -30.5t-9 -29.5q-3 -11 -6 -20.5t-6 -20.5q-1 -5 -1.5 -10.5t-2.5 -10.5q-2 -8 -7 -14t-14 -6t-16.5 9.5t-7.5 17.5q0 6 2.5 17t6 23t7 23t5.5 18z" />
    <glyph glyph-name="Ldot" unicode="&#x13f;" horiz-adv-x="264" 
d="M166 386q-16 0 -24 13.5t-8 27.5q0 17 9.5 28t26.5 11q14 0 24.5 -12t10.5 -26q0 -17 -11 -29.5t-28 -12.5zM192 0q-20 0 -38.5 0.5t-37.5 0.5q-15 0 -29.5 -0.5t-29.5 -0.5q-19 0 -29.5 1.5t-16 7.5t-6.5 16.5t-1 28.5q0 62 -0.5 122.5t-0.5 122.5q0 104 1 207.5
t1 207.5q0 18 1 27.5t6 14t14.5 5t26.5 0.5q10 0 21.5 -2.5t16.5 -11.5q1 -3 2 -22.5t1 -49v-64t-0.5 -66t-0.5 -56v-33.5q0 -26 1 -52.5t1 -52.5q0 -27 -1 -53.5t-1 -53.5v-146q0 -11 0.5 -21t0.5 -21h76q5 0 10.5 0.5t10.5 0.5q17 0 23 -9.5t6 -24.5q0 -12 -9 -17.5
t-19 -5.5z" />
    <glyph glyph-name="ldot" unicode="&#x140;" horiz-adv-x="184" 
d="M135 387q-16 0 -23.5 13t-7.5 27q0 17 9 28t26 11q14 0 24 -11.5t10 -25.5q0 -17 -10.5 -29.5t-27.5 -12.5zM41 -1q-14 0 -27 6t-13 23q0 66 1.5 132t1.5 133v165q0 80 -1.5 159t-1.5 159q0 20 8 28.5t28 8.5t29.5 -6t9.5 -29q0 -92 -0.5 -183t-0.5 -183v-123
q0 -63 1.5 -126t1.5 -126q0 -24 -7.5 -31t-29.5 -7z" />
    <glyph glyph-name="Lslash" unicode="&#x141;" horiz-adv-x="301" 
d="M101 3q-23 0 -29 16.5t-6 34.5q0 54 0.5 108t0.5 108q0 19 -0.5 37.5t-0.5 37.5q-6 -7 -16 -16.5t-19 -9.5q-13 0 -21 13t-8 24q0 8 3 14t8 11l54 59q1 57 1 112v112q0 16 -1 32t-1 32q0 20 9.5 27.5t28.5 7.5q16 0 26 -5.5t10 -24.5q0 -57 1 -113.5t1 -113.5q8 7 22 20
t25 13q10 0 19 -11t9 -20q0 -6 -10 -19.5t-23 -28t-25.5 -27l-18.5 -18.5q1 -25 1 -50v-50q0 -62 -1 -123.5t-1 -123.5h13q20 -1 40 0.5t40 1.5t24.5 -12t4.5 -28q0 -18 -15 -24q-5 -2 -25 -2.5t-44 -0.5h-46h-30z" />
    <glyph glyph-name="lslash" unicode="&#x142;" horiz-adv-x="253" 
d="M138 416q0 -26 0.5 -51t0.5 -50q0 -69 -1 -137t-1 -137q0 -17 -7 -28t-26 -11q-25 0 -31.5 13t-7.5 35v63q0 39 0.5 78.5t0.5 78.5q0 19 -0.5 37.5t-0.5 37.5q-6 -7 -16 -16.5t-19 -9.5q-13 0 -20.5 13t-7.5 24q0 14 11 25l52 59q2 56 1.5 111.5t-0.5 111.5
q0 18 -0.5 35.5t-0.5 35.5q0 17 10 22.5t25 5.5q17 0 27.5 -5.5t10.5 -25.5q0 -57 1 -113t1 -113q3 3 8.5 9t12.5 11.5t13 9.5t11 4q10 0 19 -11.5t9 -20.5q0 -8 -9.5 -20.5t-22.5 -26.5t-25 -26z" />
    <glyph glyph-name="Nacute" unicode="&#x143;" horiz-adv-x="376" 
d="M147 797q-11 0 -18.5 9t-7.5 20q0 6 5.5 16.5t13 21.5t14.5 20.5t11 15.5q4 5 7 11t7 11q5 6 11.5 11.5t14.5 5.5q11 0 19 -8t8 -19q0 -5 -8 -19t-18.5 -30.5t-21 -31t-14.5 -20.5q-4 -5 -9.5 -9.5t-13.5 -4.5zM286 588q0 -20 1 -39t1 -39q0 -95 -1.5 -189t-1.5 -189
q0 -22 0.5 -43.5t0.5 -44.5q0 -15 -5.5 -30t-25.5 -15q-11 0 -18 6.5t-12 16.5q-4 8 -6 15.5t-4 15.5q-15 59 -31 117t-31 117q-14 54 -26 107t-23 107q-2 -66 -2 -132v-132v-100.5t1 -100.5q0 -2 1 -5t1 -6q0 -11 -6.5 -16.5t-16.5 -7.5t-20.5 -2h-18.5q-21 0 -31 7t-10 29
q0 50 1.5 99t1.5 100q0 69 0.5 137t2.5 137q2 54 4 110t2 110q0 23 11 29t31 6q8 0 17 -0.5t17 -2.5q11 -4 16 -13.5t7 -20.5q5 -27 12.5 -53.5t12.5 -54.5q21 -95 43 -189.5t46 -189.5q0 85 0.5 167.5t0.5 167.5q0 37 -1.5 74t-1.5 74q0 16 7.5 28t25.5 12t24 -17t6 -32
q0 -31 -1 -62t-1 -63z" />
    <glyph glyph-name="nacute" unicode="&#x144;" 
d="M109 587q-11 0 -18.5 8.5t-7.5 19.5q0 6 5.5 16.5t13 21t14.5 20.5t11 15t6.5 11t6.5 11q5 7 11.5 12.5t14.5 5.5q11 0 18.5 -8t7.5 -19q0 -5 -8 -19t-18.5 -30t-20.5 -30.5t-14 -20.5q-9 -14 -22 -14zM218 159q0 -30 0.5 -59.5t0.5 -59.5q0 -14 -5 -28.5t-24 -14.5
q-17 0 -22.5 12t-5.5 26q0 72 1 142t1 142q0 9 0.5 36.5t-1.5 56t-7.5 51t-18.5 22.5q-16 0 -26.5 -15.5t-17 -37t-9 -43t-2.5 -33.5q0 -78 3 -156t3 -157q0 -20 -7.5 -32.5t-30.5 -12.5t-30.5 11.5t-8.5 32.5q-2 54 -2.5 107.5t-1.5 107.5q0 101 -3 203q-1 17 -1.5 34.5
t-0.5 35.5q0 3 1 6t2 5l12 9h4q6 0 11.5 1.5t11.5 1.5q15 0 22.5 -9t9.5 -22q11 14 25 24t33 10q8 0 15 -2.5t14 -5.5q21 -10 31.5 -29t15 -41.5t5.5 -46.5t3 -43q3 -36 3 -72q0 -39 -1.5 -78.5t-1.5 -78.5z" />
    <glyph glyph-name="uni0145" unicode="&#x145;" horiz-adv-x="376" 
d="M286 584q0 -20 1 -39t1 -39q0 -95 -1.5 -189.5t-1.5 -189.5q0 -22 0.5 -44t0.5 -44q0 -15 -5.5 -30t-25.5 -15q-11 0 -18 6.5t-12 15.5q-4 8 -6 16l-4 16q-15 59 -31 117t-31 117q-14 54 -26 107.5t-23 107.5q-2 -66 -2 -132.5v-132.5v-100.5t1 -100.5q0 -3 1 -5.5
t1 -5.5q0 -12 -6.5 -17.5t-16.5 -7.5t-20.5 -2h-18.5q-21 0 -31 7.5t-10 29.5q0 50 1.5 99t1.5 100q0 69 0.5 137.5t2.5 137.5q2 54 4 110t2 110q0 24 11 29.5t31 5.5q8 0 17 -0.5t17 -2.5q11 -3 16 -13t7 -21q5 -27 12.5 -53.5t12.5 -54.5q21 -96 43 -190t46 -189
q0 84 0.5 167t0.5 167q0 38 -1.5 75t-1.5 74q0 16 7.5 28t25.5 12q9 0 15 -5t9 -12t4.5 -15.5t1.5 -15.5q0 -32 -1 -63t-1 -63zM163 -129q-14 1 -23 13.5t-9 25.5q0 18 14 35.5t33 17.5q11 0 18 -6t11.5 -14.5t6.5 -18.5t2 -19q0 -15 -4 -30.5t-9 -29.5q-3 -11 -6 -20.5
t-6 -20.5q-1 -5 -1.5 -10.5t-2.5 -10.5q-2 -8 -7 -14t-14 -6t-16.5 9.5t-7.5 17.5q0 6 2.5 17t6 23t7 23t5.5 18z" />
    <glyph glyph-name="uni0146" unicode="&#x146;" 
d="M218 153q0 -30 0.5 -59.5t0.5 -59.5q0 -15 -5 -29t-24 -14q-17 0 -22.5 12t-5.5 26q0 72 1 142.5t1 142.5q0 9 0.5 36t-1.5 56t-7.5 51.5t-18.5 22.5q-16 0 -26.5 -15.5t-17 -37t-9 -43t-2.5 -33.5q0 -78 3 -156.5t3 -157.5q0 -20 -7.5 -32.5t-30.5 -12.5t-30.5 11.5
t-8.5 32.5q-2 54 -2.5 107.5t-1.5 107.5q0 102 -3 204q-1 17 -1.5 34.5t-0.5 35.5q0 3 1 6t2 5l12 9h4q6 0 11.5 2t11.5 2q15 0 22.5 -9.5t9.5 -22.5q11 14 25 24.5t33 10.5q8 0 15 -2.5t14 -6.5q21 -10 31.5 -29t15 -41.5t5.5 -46.5t3 -43q3 -36 3 -72q0 -40 -1.5 -79
t-1.5 -79zM113 -138q-14 1 -23 13.5t-9 25.5q0 18 14 35.5t33 17.5q11 0 18 -6t11.5 -14.5t6.5 -18.5t2 -19q0 -15 -4 -30.5t-9 -29.5q-3 -11 -6 -20.5t-6 -20.5q-1 -5 -1.5 -10.5t-2.5 -10.5q-2 -8 -7 -14t-14 -6t-16.5 9.5t-7.5 17.5q0 6 2.5 17t6 23t7 23t5.5 18z" />
    <glyph glyph-name="Ncaron" unicode="&#x147;" horiz-adv-x="376" 
d="M286 588q0 -20 1 -39t1 -39q0 -95 -1.5 -189t-1.5 -189q0 -22 0.5 -43.5t0.5 -44.5q0 -15 -5.5 -30t-25.5 -15q-11 0 -18 6.5t-12 16.5q-4 8 -6 15.5t-4 15.5q-15 59 -31 117t-31 117q-14 54 -26 107.5t-23 107.5q-2 -67 -2 -133v-132v-100.5t1 -100.5q0 -2 1 -5t1 -6
q0 -11 -6.5 -16.5t-16.5 -7.5t-20.5 -2h-18.5q-21 0 -31 7t-10 29q0 50 1.5 99t1.5 100q0 69 0.5 137t2.5 137q2 55 4 110.5t2 109.5q0 24 11 29.5t31 5.5q8 0 17 -0.5t17 -2.5q11 -3 16 -12.5t7 -20.5q5 -28 12.5 -54.5t12.5 -53.5q21 -96 43 -190.5t46 -189.5
q0 85 0.5 167.5t0.5 167.5q0 37 -1.5 74t-1.5 74q0 16 7.5 28t25.5 12q9 0 15 -5t9 -12t4.5 -15.5t1.5 -15.5q0 -32 -1 -63t-1 -63zM163 809q-8 0 -13.5 5t-9.5 12t-12 24.5t-16.5 37.5t-14.5 37.5t-6 23.5q0 25 25 25q9 0 16.5 -10t13 -23.5t9.5 -27t7 -20.5q2 5 7 16
t10 22.5t9.5 21.5t6.5 13q6 8 15 8q8 0 19.5 -6.5t11.5 -16.5q0 -5 -7.5 -24t-17.5 -41t-19.5 -41t-13.5 -24q-10 -12 -20 -12z" />
    <glyph glyph-name="ncaron" unicode="&#x148;" 
d="M218 159q0 -29 0.5 -59t0.5 -60q0 -14 -5 -28.5t-24 -14.5q-17 0 -22.5 12t-5.5 26q0 72 1 142.5t1 142.5q0 9 0.5 36t-1.5 56t-7.5 51.5t-18.5 22.5q-16 0 -26.5 -15.5t-17 -37t-9 -43t-2.5 -33.5q0 -79 3 -157t3 -157q0 -20 -7.5 -32.5t-30.5 -12.5t-30.5 11.5
t-8.5 32.5q-2 54 -2.5 107.5t-1.5 107.5q0 101 -3 203q-1 18 -1.5 35.5t-0.5 34.5q0 3 1 6l2 6l12 9q1 0 1.5 -0.5t2.5 -0.5q6 0 11.5 2t11.5 2q15 0 22.5 -9t9.5 -23q11 15 25 25t33 10q8 0 15 -2.5t14 -5.5q21 -10 31.5 -29t15 -41.5t5.5 -46.5t3 -44q3 -36 3 -72
q0 -39 -1.5 -78.5t-1.5 -78.5zM102 588q-8 0 -13.5 5t-8.5 12q-4 7 -12 24.5t-16.5 37.5t-15 37.5t-6.5 23.5q0 11 7 18t18 7q9 0 16.5 -10t13.5 -23.5t10 -27t6 -20.5q2 5 7 16t10 23t10 21.5t7 12.5q6 8 14 8q9 0 20.5 -6.5t11.5 -16.5q0 -5 -8 -24t-18 -41t-19.5 -41
t-13.5 -24q-9 -12 -20 -12z" />
    <glyph glyph-name="napostrophe" unicode="&#x149;" 
d="M43 706q-16 1 -26 14t-10 29q0 20 16 38t37 18q12 0 20 -6t13.5 -15t7.5 -20t2 -21q0 -17 -4 -33t-9.5 -32.5l-11 -33t-8.5 -32.5l-11 1q3 -3 3 -7q0 -7 -6.5 -11t-12.5 -4q-11 0 -17.5 9.5t-6.5 18.5q0 7 3 18.5t6.5 24.5t7.5 25t7 19zM218 159q0 -29 0.5 -59t0.5 -59
q0 -15 -5 -29.5t-24 -14.5q-17 0 -22.5 12t-5.5 26q0 72 1 142.5t1 142.5q0 9 0.5 36.5t-1.5 56t-7.5 51t-18.5 22.5q-16 0 -26.5 -15.5t-17 -37t-9 -43t-2.5 -33.5q0 -78 3 -156.5t3 -157.5q0 -20 -7.5 -32.5t-30.5 -12.5t-30.5 11.5t-8.5 32.5q-2 54 -2.5 107.5
t-1.5 107.5q0 102 -3 204q-1 17 -1.5 35t-0.5 35q0 3 1 6t2 5l12 10q1 -1 4 -1q6 0 11.5 2t11.5 2q15 0 22.5 -9.5t9.5 -22.5q11 14 25 24.5t33 10.5q8 0 15 -2.5t14 -6.5q21 -10 31.5 -29t15 -41.5t5.5 -46.5t3 -43q3 -36 3 -72q0 -40 -1.5 -79t-1.5 -79z" />
    <glyph glyph-name="Omacron" unicode="&#x14c;" horiz-adv-x="353" 
d="M83 818q-12 0 -20 8.5t-8 20.5q0 13 8 20.5t21 7.5h164q11 0 17.5 -8t6.5 -19q0 -16 -9 -22t-24 -7q-22 -1 -44 -0.5t-45 0.5q-17 0 -33.5 -0.5t-33.5 -0.5zM139 0q-26 0 -44 17t-31 37q-19 30 -31 67t-19 76.5t-9.5 79t-2.5 74.5q0 38 3 85.5t11 96t22 92.5t35 76
q14 23 36 42t51 19q17 0 28.5 -5.5t23.5 -16.5q14 -11 22.5 -24t17.5 -28l8 -13q12 -20 18.5 -46t9.5 -53.5t3.5 -55.5t0.5 -51q0 -34 0.5 -67.5t-1.5 -68.5q-1 -28 -7 -69.5t-15.5 -84t-23.5 -81t-30 -60.5q-13 -17 -34 -27.5t-42 -10.5zM176 688h-1q-14 -7 -25 -27.5
t-19.5 -48.5t-14 -60t-9.5 -63t-5.5 -56.5t-1.5 -40.5q0 -32 3.5 -70.5t9.5 -78.5t15.5 -78t21.5 -67q3 -7 6.5 -14.5t8.5 -14.5q6 2 10 10.5t7 13.5q19 44 30.5 90.5t17 94.5t7 96t1.5 95q0 24 -1 51t-5.5 54.5t-13 52.5t-23.5 45q-3 4 -8.5 10t-10.5 6z" />
    <glyph glyph-name="omacron" unicode="&#x14d;" horiz-adv-x="295" 
d="M39 593q-11 0 -19 8t-8 20q0 28 28 28h162q11 0 17.5 -8t6.5 -18q0 -16 -9 -22.5t-23 -6.5q-23 -2 -44.5 -1t-44.5 1q-17 0 -33 -0.5t-33 -0.5zM128 0q-27 0 -46.5 11t-33 29t-21 41t-11.5 46q-7 42 -10.5 84t-3.5 84q0 22 2.5 56t8.5 68.5t17 65t28 46.5q10 11 24 16
t28 5q35 0 56 -22.5t36 -50.5q13 -24 21 -52.5t11.5 -58t4.5 -59.5t1 -57q0 -49 -10.5 -100t-30.5 -96q-10 -23 -26.5 -39.5t-44.5 -16.5zM125 483q-8 0 -13.5 -12.5t-9 -32.5t-5.5 -44t-3 -46t-1 -40v-25q0 -17 1.5 -49t6 -65.5t13.5 -62t24 -37.5q9 3 16.5 21.5t13.5 42
t10 45.5t6 32q3 25 3 52q0 24 -0.5 53t-5 57.5t-14 54.5t-27.5 44q-2 2 -7.5 7t-7.5 5z" />
    <glyph glyph-name="Obreve" unicode="&#x14e;" horiz-adv-x="353" 
d="M156 792q-25 0 -41.5 9.5t-26.5 25.5t-14.5 36.5t-4.5 41.5q0 13 5.5 27t21.5 14q14 0 21 -8t7 -22q0 -5 -0.5 -9t-0.5 -9q0 -20 6 -34.5t29 -14.5q12 0 19.5 7t11.5 17.5t5 21.5t1 20q0 12 4 24t19 12q17 0 24.5 -11t7.5 -26q0 -11 -1 -21.5t-4 -20.5
q-8 -31 -31.5 -55.5t-57.5 -24.5zM139 0q-26 0 -44 17t-31 37q-19 30 -31 67t-19 76.5t-9.5 79.5t-2.5 75q0 37 3 85t11 96t22 92.5t35 76.5q14 23 36 42t51 19q17 0 28.5 -5.5t23.5 -16.5q14 -11 22.5 -23.5t17.5 -27.5l8 -13q12 -20 18.5 -46.5t9.5 -54t3.5 -55.5t0.5 -51
q0 -34 0.5 -68t-1.5 -68q-1 -28 -7 -69.5t-15.5 -84.5t-23.5 -81.5t-30 -60.5q-13 -17 -34 -27.5t-42 -10.5zM176 689h-1q-14 -7 -25 -27.5t-19.5 -48.5t-14 -60t-9.5 -63t-5.5 -56.5t-1.5 -40.5q0 -32 3.5 -71t9.5 -79t15.5 -77.5t21.5 -66.5q3 -8 6.5 -15.5t8.5 -13.5
q6 2 10 10l7 14q19 44 30.5 90.5t17 94t7 96t1.5 95.5q0 24 -1 51t-5.5 54.5t-13 52.5t-23.5 45q-3 4 -8.5 10t-10.5 6z" />
    <glyph glyph-name="obreve" unicode="&#x14f;" horiz-adv-x="295" 
d="M113 579q-25 0 -41.5 10t-26.5 25.5t-14 36t-4 41.5q0 12 5.5 26.5t20.5 14.5q14 0 21.5 -8t7.5 -22q0 -5 -1 -9t-1 -9q0 -20 6 -34.5t29 -14.5q12 0 19 7t11 17.5t5 21.5t1 20q0 11 4 23.5t19 12.5q17 0 24 -11.5t7 -26.5q0 -10 -1 -20.5t-3 -20.5q-8 -31 -31 -55.5
t-57 -24.5zM128 0q-27 0 -46.5 11.5t-33 29.5t-21 40.5t-11.5 45.5q-7 42 -10.5 84.5t-3.5 84.5q0 23 2.5 57t8.5 68.5t17 65t28 46.5q10 11 24 16t28 5q34 0 55.5 -23t36.5 -50q13 -24 21 -52.5t11.5 -58.5t4.5 -60t1 -57q0 -49 -10.5 -100.5t-30.5 -96.5
q-10 -23 -26.5 -39.5t-44.5 -16.5zM125 485q-12 0 -18.5 -27t-9.5 -62t-3.5 -68t-0.5 -44q0 -17 1.5 -49t6 -66t13.5 -62t24 -38q9 3 16.5 21.5t13.5 42t10 46t6 31.5q3 27 3 53q0 24 -0.5 53t-5 57.5t-14 54.5t-27.5 45q-2 2 -7.5 7t-7.5 5z" />
    <glyph glyph-name="Ohungarumlaut" unicode="&#x150;" horiz-adv-x="353" 
d="M214 807q-12 0 -19.5 9t-7.5 20q0 6 5.5 16.5t13 21.5t15 20.5t11.5 15.5q4 5 7 11t7 11q4 6 11 11.5t15 5.5q11 0 19 -8t8 -19q0 -5 -8 -19t-19 -30.5t-21.5 -31t-14.5 -20.5q-4 -5 -9 -9.5t-13 -4.5zM108 807q-11 0 -19 9t-8 20q0 6 5.5 16.5t13 21.5t15 20.5
t11.5 15.5q4 5 7 11t7 11q5 6 11.5 11.5t14.5 5.5q11 0 19 -8t8 -19q0 -5 -8 -19t-18.5 -30.5t-21 -31t-14.5 -20.5q-5 -5 -10 -9.5t-13 -4.5zM139 0q-26 0 -44 17t-31 37q-19 30 -31 67t-19 76.5t-9.5 79.5t-2.5 75q0 37 3 85t11 96t22 92.5t35 76.5q14 23 36 42t51 19
q17 0 28.5 -5.5t24.5 -16.5q14 -11 22.5 -23.5t16.5 -27.5l8 -13q12 -20 18.5 -46.5t10 -54t4 -55.5t0.5 -51v-68t-2 -68q-1 -28 -6.5 -69.5t-15.5 -84.5t-23.5 -81.5t-29.5 -60.5q-14 -17 -35 -27.5t-42 -10.5zM176 689h-1q-14 -7 -25 -27.5t-19.5 -48.5t-14 -60t-9.5 -63
t-5.5 -56.5t-1.5 -40.5q0 -32 3.5 -71t10 -79t16 -77.5t21.5 -66.5q3 -8 6 -15.5t8 -13.5q6 2 10.5 10t6.5 14q19 44 30.5 90.5t17 94t7 96t1.5 95.5q0 24 -1 51t-5.5 54.5t-13 52.5t-23.5 45q-3 4 -8.5 10t-10.5 6z" />
    <glyph glyph-name="ohungarumlaut" unicode="&#x151;" horiz-adv-x="295" 
d="M163 584q-11 0 -19 9t-8 20q0 6 5.5 16t13 20.5t15 20.5t11.5 15q4 6 6.5 11.5t6.5 10.5q5 7 11.5 12.5t14.5 5.5q11 0 19 -8t8 -19q0 -5 -8 -19t-18.5 -30t-21 -30.5t-14.5 -20.5q-9 -14 -22 -14zM58 584q-11 0 -18.5 9t-7.5 20q0 6 5.5 16t13 20.5t14.5 20.5t11 15
q4 6 7 11.5t7 10.5q5 7 11.5 12.5t14.5 5.5q11 0 18.5 -8t7.5 -19q0 -5 -8 -19t-18.5 -30t-20.5 -30.5t-14 -20.5q-9 -14 -23 -14zM129 0q-27 0 -47 11.5t-33.5 29.5t-21 40.5t-11.5 45.5q-7 42 -10.5 84.5t-3.5 84.5q0 22 2.5 56t8.5 69t17 65.5t28 46.5q10 10 24.5 15
t28.5 5q34 0 55 -22.5t36 -49.5q14 -25 22 -53.5t11.5 -58t4.5 -59.5t1 -57q0 -50 -10.5 -101t-30.5 -96q-11 -23 -27.5 -39.5t-43.5 -16.5zM125 484q-8 0 -13.5 -12.5t-9 -32.5t-5.5 -44t-3 -46t-1 -40v-25q0 -18 1.5 -50t6 -65.5t13.5 -61.5t24 -38q9 3 16.5 21.5t13.5 42
t10 46t6 31.5q2 14 3 26.5t1 26.5q0 24 -1 53t-5.5 57.5t-14 54.5t-27.5 45q-2 2 -7.5 6.5t-7.5 4.5z" />
    <glyph glyph-name="OE" unicode="&#x152;" horiz-adv-x="496" 
d="M413 -3q-45 0 -89 0.5t-89 0.5q-13 0 -21 8l-4 7v2q-12 -5 -25.5 -9.5t-27.5 -4.5q-28 0 -48 16.5t-36 36.5q-21 30 -35 66t-22 74.5t-11 78t-3 75.5q0 39 3.5 86.5t12.5 95.5t25 92t40 76q17 23 42 41t55 18q25 0 47 -13q9 6 20 6q29 0 58 0.5t58 0.5q12 0 24 -0.5
t24 -0.5q15 0 18 -10.5t3 -22.5t-5.5 -21.5t-19.5 -9.5q-24 0 -48 -0.5t-48 -0.5q3 -69 2.5 -138t-0.5 -138q5 0 11 -0.5t12 -0.5q11 0 21 1.5t20 1.5q15 0 24.5 -8.5t9.5 -23.5q0 -23 -25 -28q-18 -4 -36.5 -4.5t-36.5 0.5v-284q23 -1 46.5 -0.5t46.5 0.5q7 0 13.5 -1
t11.5 -5l6 -11v-21q0 -11 -6 -19.5t-18 -8.5zM210 655q0 5 -0.5 16.5t-8.5 11.5q-17 0 -30 -17.5t-23 -45.5t-17.5 -62t-12 -66.5t-6.5 -59.5t-2 -41q0 -34 3.5 -73t11 -78.5t19 -76.5t26.5 -67q3 -6 8.5 -15.5t13.5 -9.5q7 0 10.5 16.5t5 37.5t2 39.5t0.5 23.5
q2 93 1.5 185t-0.5 186q0 24 -0.5 48t-0.5 48z" />
    </font>
</defs>
</svg>
