<?xml version="1.0" standalone="no"?>
<!DOCTYPE svg PUBLIC "-//W3C//DTD SVG 1.1//EN" "http://www.w3.org/Graphics/SVG/1.1/DTD/svg11.dtd">
<svg xmlns="http://www.w3.org/2000/svg">
<defs >
<font id="OldStandardTT" horiz-adv-x="604" ><font-face
    font-family="Old Standard TT"
    units-per-em="1000"
    panose-1="0 0 5 0 0 0 0 0 0 0"
    ascent="762"
    descent="-238"
    alphabetic="0" />
<glyph unicode=" " glyph-name="space" horiz-adv-x="280" />
<glyph unicode="!" glyph-name="exclam" horiz-adv-x="280" d="M112 356Q109 399 95 474Q78 568 78 622Q78 655 95 674T140 694Q168 694 185 675T202 622Q202 568 185 474Q171 399 168 356L152 156H128L112 356ZM113 -12T96 5T78 50Q78 77 95 94T140 112Q167 112
184 95T202 50Q202 23 185 6T140 -12Q113 -12 96 5Z" />
<glyph unicode="&quot;" glyph-name="quotedbl" horiz-adv-x="394" d="M88 666L86 684Q86 707 95 718T120 730Q135 730 144 719T154 684L152 666L132 520H108L88 666ZM242 666L240 684Q240 707 249 718T274 730Q289 730 298 719T308 684L306 666L286 520H262L242 666Z" />
<glyph unicode="#" glyph-name="numbersign" horiz-adv-x="684" d="M166 0L197 196H81V236H202L238 450H81V490H244L273 684H317L287 490H433L463 684H507L477 490H610V450H472L438 236H607V196H430L400 0H356L386 196H241L210 0H166ZM246 236H394L428 450H282L246 236Z" />
<glyph unicode="$" glyph-name="dollar" horiz-adv-x="580" d="M228 -11Q150 3 106 48T62 165Q62 200 86 224Q104 242 130 242Q146 242 160 230Q172 218 172 198Q172 181 165 169T136 132Q124 120 124 99Q124 73 151 52T228 21V333L222 335Q153 362 120 408T86
518Q86 581 122 629T228 693V758H260V698Q280 700 292 700Q308 700 316 699V758H348V695Q421 682 461 637T502 536Q502 514 499 498T488 468Q481 456 469 449T441 442Q430 442 423 445T408 456Q399 467 399 481Q399 499 407 512T428 536Q438 545 443 554T449 581Q449
604 424 628T348 663V379L368 371Q431 346 465 297T500 187Q500 115 461 61T348 -10V-84H316V-15Q308 -16 292 -16Q270 -16 260 -15V-84H228V-11ZM316 667Q308 668 292 668Q280 668 260 666V414L316 392V667ZM228 660Q180 646 157 613T134 540Q134 497 152 473T222
429L228 427V660ZM308 16T316 17V298L260 320V17Q270 16 292 16Q308 16 316 17ZM400 37T428 74T456 155Q456 207 435 232T368 277L348 285V23Q400 37 428 74Z" />
<glyph unicode="%" glyph-name="percent" horiz-adv-x="860" d="M198 -18L624 702H660L234 -18H198ZM192 342T161 365T113 429T96 520Q96 570 113 611T161 676T230 700Q268 700 299 677T348 612T366 520Q366 470 349 429T300 365T230 342Q192 342 161 365ZM274
362T288 403T302 520Q302 595 288 637T230 680Q187 680 174 638T160 520Q160 444 173 403T230 362Q274 362 288 403ZM590 -16T559 7T511 71T494 162Q494 212 511 253T559 318T628 342Q666 342 697 319T746 254T764 162Q764 112 747 71T698 7T628 -16Q590 -16 559
7ZM672 4T686 45T700 162Q700 237 686 279T628 322Q585 322 572 280T558 162Q558 86 571 45T628 4Q672 4 686 45Z" />
<glyph unicode="&amp;" glyph-name="ampersand" horiz-adv-x="786" d="M158 -18T106 23T54 145Q54 202 96 252T196 346L226 369L216 384Q192 420 178 458T164 530Q164 580 185 619T242 681T318 703Q376 703 405 667T435 580Q435 524 403 482T311 393L483 149L487
154Q522 197 545 247T568 326Q568 344 557 355T529 366H484V398H732V366H701Q674 366 654 356T615 309Q576 230 553 192T503 121Q538 72 562 49T611 26Q648 26 670 47T708 102L724 94Q703 49 673 16T588 -18Q518 -18 446 63Q405 27 355 5T249 -18Q158 -18 106 23ZM338
458T368 495T399 586Q399 621 376 647T319 673Q278 673 253 642T228 560Q228 528 245 494T281 435L291 422Q338 458 368 495ZM345 12T425 87L407 110L246 341L236 333Q198 303 174 261T150 153Q150 106 167 75T210 28T261 12Q345 12 425 87Z" />
<glyph unicode="&apos;" glyph-name="quotesingle" horiz-adv-x="240" d="M88 666L86 684Q86 707 95 718T120 730Q135 730 144 719T154 684L152 666L132 520H108L88 666Z" />
<glyph unicode="(" glyph-name="parenleft" horiz-adv-x="370" d="M205 -116T152 4T98 266Q98 407 151 527T294 730L324 706Q235 613 192 504T148 266Q148 137 191 28T324 -174L294 -198Q205 -116 152 4Z" />
<glyph unicode=")" glyph-name="parenright" horiz-adv-x="370" d="M48 -174Q137 -81 180 28T224 266Q224 395 181 504T48 706L78 730Q167 648 220 528T274 266Q274 125 221 5T78 -198L48 -174Z" />
<glyph unicode="*" glyph-name="asterisk" horiz-adv-x="502" d="M237 290T227 302T217 333Q217 347 229 376Q243 411 243 453Q243 462 242 465T235 468Q230 468 221 462Q186 440 165 413Q150 393 138 384T109 374Q92 374 82 385T72 411Q72 433 90 443T139 458Q176
463 213 484Q215 485 219 488T223 495Q223 499 219 502T213 506Q176 527 139 532Q108 536 90 546T72 579Q72 593 82 604T109 616Q125 616 137 607T165 577Q186 550 221 528Q230 522 235 522Q240 522 241 525T243 537Q243 579 229 614Q217 643 217 657Q217 676 227
688T255 700Q273 700 283 688T293 657Q293 643 281 614Q267 579 267 537Q267 528 268 525T275 522Q280 522 289 528Q324 550 345 577Q360 597 373 606T401 616Q418 616 428 605T438 579Q438 557 420 547T371 532Q334 527 297 506Q295 505 291 502T287 495Q287 491
291 488T297 484Q334 463 371 458Q402 454 420 444T438 411Q438 397 428 386T401 374Q386 374 373 383T345 413Q324 440 289 462Q280 468 275 468Q270 468 269 465T267 453Q267 411 281 376Q293 347 293 333Q293 314 283 302T255 290Q237 290 227 302Z" />
<glyph unicode="+" glyph-name="plus" horiz-adv-x="940" d="M448 -156V244H48V284H448V684H492V284H892V244H492V-156H448Z" />
<glyph unicode="," glyph-name="comma" horiz-adv-x="280" d="M90 -152Q127 -124 150 -84T174 -4Q174 7 170 13T156 26Q149 30 122 30Q100 30 86 45T72 82Q72 109 90 124T130 140Q169 140 191 108Q210 82 210 37Q210 -25 179 -80T104 -168L90 -152Z" />
<glyph unicode="-" glyph-name="hyphen" horiz-adv-x="370" d="M60 224V280H310V224H60Z" />
<glyph unicode="." glyph-name="period" horiz-adv-x="280" d="M113 -12T96 5T78 50Q78 77 95 94T140 112Q167 112 184 95T202 50Q202 23 185 6T140 -12Q113 -12 96 5Z" />
<glyph unicode="/" glyph-name="slash" horiz-adv-x="450" d="M56 -198L354 730H394L96 -198H56Z" />
<glyph unicode="0" glyph-name="zero" horiz-adv-x="580" d="M219 -16T164 35T79 168T48 342Q48 433 78 515T164 649T290 700Q360 700 415 649T501 516T532 342Q532 251 502 169T416 35T290 -16Q219 -16 164 35ZM373 16T399 110T426 342Q426 480 400 574T290 668Q207
668 181 575T154 342Q154 203 180 110T290 16Q373 16 399 110Z" />
<glyph unicode="1" glyph-name="one" horiz-adv-x="580" d="M120 32H216Q231 32 237 38T244 58V549H120V585H175Q229 585 262 614T304 684H336V58Q336 44 342 38T364 32H460V0H120V32Z" />
<glyph unicode="2" glyph-name="two" horiz-adv-x="580" d="M83 55T104 109T198 225L294 307Q341 346 365 393T390 501Q390 579 352 621T244 664Q212 664 183 649T135 610T116 559Q116 535 127 524T157 509Q189 504 204 488T220 448Q220 429 207 416T169 403Q128
403 101 435T74 521Q74 572 99 613T170 677T272 700Q336 700 387 676T467 607T496 501Q496 440 453 391T340 292L242 216Q200 187 178 161T155 106Q155 82 186 82H375Q415 82 431 99T454 149L465 208H487L473 0H83Q83 55 104 109Z" />
<glyph unicode="3" glyph-name="three" horiz-adv-x="580" d="M176 -16T124 18T72 119Q72 155 93 180T148 206Q177 206 193 191T210 148Q210 127 198 112T165 96Q130 96 130 79Q130 16 256 16Q329 16 361 66T394 186Q394 266 360 306T275 346Q260 346 251 344T227
337Q194 326 176 326Q161 326 150 333T138 354Q138 368 149 375T176 382Q193 382 223 377Q243 374 278 374Q326 374 351 417T377 517Q377 582 347 625T260 668Q201 668 177 649T152 606Q152 597 159 588T178 572Q214 557 214 523Q214 502 200 489T160 475Q131 475
110 499T88 554Q88 624 141 662T271 700Q362 700 417 652T473 524Q473 482 454 450T405 397T345 369V361Q378 355 414 333T475 272T500 185Q500 124 467 79T379 9T256 -16Q176 -16 124 18Z" />
<glyph unicode="4" glyph-name="four" horiz-adv-x="580" d="M186 32H283Q297 32 303 38T310 58V192H56V228L366 685H402V228H523V192H402V58Q402 44 408 38T429 32H526V0H186V32ZM102 228H310V534L102 228Z" />
<glyph unicode="5" glyph-name="five" horiz-adv-x="580" d="M212 -16T171 3T108 56T86 131Q86 178 110 203T166 228Q193 228 208 212T224 170Q224 153 214 139T188 117Q174 110 166 103T158 84Q158 52 183 34T268 16Q342 16 375 80T408 242Q408 334 376 383T272
432Q243 432 222 424T179 393Q169 383 163 367T156 338Q156 327 151 320T136 313Q120 313 120 338V683L142 700Q163 682 203 670T279 658Q327 658 366 667T446 700L458 686Q422 639 370 611T258 582Q221 582 199 586T156 602V411L162 409Q186 437 220 452T292 468Q397
468 455 406T514 242Q514 169 481 110T391 18T268 -16Q212 -16 171 3Z" />
<glyph unicode="6" glyph-name="six" horiz-adv-x="580" d="M233 -16T184 24T107 138T80 314Q80 396 101 475T162 606Q235 700 333 700Q404 700 448 652Q463 634 469 612T476 573Q476 538 451 516Q434 501 410 501Q387 501 374 519Q369 526 368 532T366 548Q366
563 379 578Q388 588 398 595Q407 601 410 607T414 623Q414 641 394 654T331 668Q295 668 263 647T208 577Q191 540 182 484T173 390V345L180 342Q198 380 235 404T308 429Q375 429 421 396Q460 368 481 321T502 219Q502 165 478 111T408 20T298 -16Q233 -16 184
24ZM359 16T386 74T414 206Q414 286 390 339T310 392Q275 392 247 369T203 304T186 206Q186 123 212 70T298 16Q359 16 386 74Z" />
<glyph unicode="7" glyph-name="seven" horiz-adv-x="580" d="M247 -16T226 10T204 80Q204 140 233 203T309 333L389 448Q411 479 425 514T440 576Q440 591 433 596T409 602H202Q162 602 146 585T123 535L112 476H90L104 684H488Q488 632 473 565T420 443L363
357Q322 297 322 227Q322 184 328 152L334 117Q342 77 342 47Q342 -16 283 -16Q247 -16 226 10Z" />
<glyph unicode="8" glyph-name="eight" horiz-adv-x="580" d="M222 -16T172 7T91 73T60 174Q60 247 101 288T188 342V346L177 351Q124 373 96 416T68 516Q68 568 100 610T183 676T289 700Q357 700 404 676T476 612T500 528Q500 474 466 435T385 374V370L408 361Q526
313 526 210Q526 148 498 97T414 15T281 -16Q222 -16 172 7ZM400 405T418 440T436 522Q436 563 416 596T363 649T289 668Q227 668 185 633T142 540Q142 498 162 473T227 430L356 381Q400 405 418 440ZM347 16T382 39T432 94T448 156Q448 212 424 239T352 285L217
334Q176 317 153 280T130 172Q130 92 178 54T292 16Q347 16 382 39Z" />
<glyph unicode="9" glyph-name="nine" horiz-adv-x="580" d="M176 -16T132 32Q117 50 111 72T104 111Q104 146 129 168Q147 183 170 183Q193 183 206 165Q211 158 212 152T214 136Q214 121 201 106Q192 96 182 89Q173 83 170 77T166 61Q166 43 186 30T249 16Q285
16 317 37T372 107Q389 144 398 200T407 294V339L400 342Q382 304 345 280T272 255Q205 255 159 288Q120 316 99 363T78 465Q78 519 102 573T172 664T282 700Q347 700 396 660T473 546T500 370Q500 288 479 209T418 78Q345 -16 247 -16Q176 -16 132 32ZM305 292T333
315T377 380T394 478Q394 561 368 614T282 668Q221 668 194 610T166 478Q166 398 190 345T270 292Q305 292 333 315Z" />
<glyph unicode=":" glyph-name="colon" horiz-adv-x="280" d="M113 344T96 361T78 406Q78 433 95 450T140 468Q167 468 184 451T202 406Q202 379 185 362T140 344Q113 344 96 361ZM113 -12T96 5T78 50Q78 77 95 94T140 112Q167 112 184 95T202 50Q202 23 185 6T140
-12Q113 -12 96 5Z" />
<glyph unicode=";" glyph-name="semicolon" horiz-adv-x="280" d="M113 344T96 361T78 406Q78 433 95 450T140 468Q167 468 184 451T202 406Q202 379 185 362T140 344Q113 344 96 361ZM90 -152Q127 -124 150 -84T174 -4Q174 7 170 13T156 26Q149 30 122 30Q100
30 86 45T72 82Q72 109 90 124T130 140Q169 140 191 108Q210 82 210 37Q210 -25 179 -80T104 -168L90 -152Z" />
<glyph unicode="&lt;" glyph-name="less" horiz-adv-x="940" d="M840 -156L84 250V278L840 684L860 648L146 264L860 -120L840 -156Z" />
<glyph unicode="=" glyph-name="equal" horiz-adv-x="940" d="M48 338V378H892V338H48ZM48 148V188H892V148H48Z" />
<glyph unicode="&gt;" glyph-name="greater" horiz-adv-x="940" d="M100 -156L80 -120L794 264L80 648L100 684L856 278V250L100 -156Z" />
<glyph unicode="?" glyph-name="question" horiz-adv-x="470" d="M209 154T184 175T158 235Q158 265 169 286T206 334L282 416Q311 448 325 476T340 542Q340 595 311 629T225 664Q195 664 168 653T125 624T108 586Q108 563 114 557Q119 553 124 553Q131 553 134
554Q141 556 152 556Q169 556 178 545T188 516Q188 495 174 482T133 468Q105 468 85 491T64 555Q64 594 89 626T153 676T232 694Q284 694 329 677T401 625T428 542Q428 501 407 467T357 408T281 351Q192 290 192 232Q192 207 207 196T248 184Q274 184 291 202T308
250Q308 266 303 276L321 284Q332 266 332 249Q332 222 320 200T287 166T248 154Q209 154 184 175ZM221 -12T204 5T186 50Q186 77 203 94T248 112Q275 112 292 95T310 50Q310 23 293 6T248 -12Q221 -12 204 5Z" />
<glyph unicode="@" glyph-name="at" horiz-adv-x="820" d="M298 -18T217 29T92 160T48 355Q48 457 97 543T232 679T420 730Q529 730 607 684T725 557T766 377Q766 323 741 266T664 170T538 131Q500 131 474 151T443 206L438 207Q421 181 389 156T318 131Q273 131
240 163T206 255Q206 318 223 380T273 481Q315 532 361 555T449 579Q475 579 495 560T520 524H525L536 567H608L524 257Q518 233 518 214Q518 187 529 171T554 155Q615 155 652 193T703 286T718 397Q718 492 680 561T573 666T411 702Q325 702 253 654T138 522T96
335Q96 235 134 162T246 50T420 10Q508 10 596 68L612 45Q579 21 529 2T410 -18Q298 -18 217 29ZM373 155T413 208T474 335L497 420Q502 438 502 457Q502 495 488 525T449 555Q409 555 378 528T316 435Q298 396 286 337T274 223Q274 192 289 174T322 155Q373 155
413 208Z" />
<glyph unicode="A" glyph-name="A" horiz-adv-x="764" d="M46 32H83Q142 32 169 105L384 712H409L626 76Q636 51 650 42T686 32H742V0H432V32H498Q513 32 523 39T533 57Q533 70 529 79L482 212H248L224 145Q210 105 210 87Q210 65 221 49T259 32H320V0H46V32ZM259
244H471L367 549L259 244Z" />
<glyph unicode="B" glyph-name="B" horiz-adv-x="690" d="M62 32H134Q161 32 161 59V653Q161 667 155 673T134 680H62V712H388Q447 712 498 690T581 630T612 542Q612 474 566 430T459 373V369Q500 366 540 344T607 282T634 194Q634 133 602 89T517 23T399 0H62V32ZM384
388Q465 388 494 429T524 542Q524 602 486 641T392 680H280Q266 680 260 674T253 653V388H384ZM388 32Q449 32 488 68T528 194Q528 283 489 319T388 356H253V59Q253 32 280 32H388Z" />
<glyph unicode="C" glyph-name="C" horiz-adv-x="670" d="M273 -18T206 36T105 177T70 362Q70 463 104 547T201 680T348 730Q392 730 431 710T495 667Q519 645 527 645Q535 645 538 650T546 666L565 722H590L594 412H566Q544 507 509 571T433 667T350 698Q255
698 216 612T176 362Q176 193 217 104T366 14Q462 14 512 85T570 259H606Q603 200 582 137T507 28T366 -18Q273 -18 206 36Z" />
<glyph unicode="D" glyph-name="D" horiz-adv-x="780" d="M62 32H134Q161 32 161 59V653Q161 667 155 673T134 680H62V712H428Q511 712 580 668T689 544T730 362Q730 260 690 177T580 47T428 0H62V32ZM424 32Q494 32 539 79T604 201T624 362Q624 496 576 588T424
680H280Q266 680 260 674T253 653V59Q253 32 280 32H424Z" />
<glyph unicode="E" glyph-name="E" horiz-adv-x="690" d="M62 32H134Q161 32 161 59V653Q161 667 155 673T134 680H62V712H620L624 462H599Q599 482 591 530T557 616Q515 680 439 680H280Q266 680 260 674T253 653V384H330Q381 384 403 436T426 547H452V189H426Q426
248 404 300T330 352H253V59Q253 32 280 32H440Q469 32 499 45T550 85Q570 113 583 155T601 231T607 276H632L620 0H62V32Z" />
<glyph unicode="F" glyph-name="F" horiz-adv-x="676" d="M62 32H134Q161 32 161 59V653Q161 667 155 673T134 680H62V712H620L624 462H599Q599 482 591 530T557 616Q515 680 439 680H280Q266 680 260 674T253 653V384H330Q381 384 403 438T426 553H452V183H426Q426
243 404 297T330 352H253V65Q253 50 259 41T280 32H368V0H62V32Z" />
<glyph unicode="G" glyph-name="G" horiz-adv-x="720" d="M264 -18T201 32T104 169T70 362Q70 463 104 547T201 680T348 730Q392 730 431 710T495 667Q519 645 527 645Q535 645 538 650T546 666L565 722H590L594 412H566Q544 507 509 571T433 667T350 698Q281
698 243 657T191 541T176 356Q176 245 190 171T243 56T350 14Q387 14 421 40T476 108T498 189V279Q498 293 492 299T471 306H360V338H690V306H617Q603 306 597 300T590 279V-13H558V78Q558 95 554 103T541 112Q530 112 522 104T506 82Q483 45 441 14T350 -18Q264
-18 201 32Z" />
<glyph unicode="H" glyph-name="H" horiz-adv-x="788" d="M62 32H134Q161 32 161 59V653Q161 680 134 680H62V712H352V680H280Q253 680 253 653V390H555V653Q555 680 528 680H456V712H746V680H674Q647 680 647 653V59Q647 32 674 32H746V0H456V32H528Q555 32 555
59V358H253V59Q253 32 280 32H352V0H62V32Z" />
<glyph unicode="I" glyph-name="I" horiz-adv-x="394" d="M62 32H134Q161 32 161 59V653Q161 667 155 673T134 680H62V712H352V680H280Q266 680 260 674T253 653V59Q253 32 280 32H352V0H62V32Z" />
<glyph unicode="J" glyph-name="J" horiz-adv-x="540" d="M140 -18T92 20T44 125Q44 155 57 176T89 207T127 218Q156 218 170 204T184 168Q184 147 173 136T136 116Q119 111 112 104T104 82Q104 51 136 33T214 14Q263 14 290 52T317 143V653Q317 667 311 673T290
680H218V712H508V680H436Q422 680 416 674T409 653V194Q409 128 382 80T311 7T214 -18Q140 -18 92 20Z" />
<glyph unicode="K" glyph-name="K" horiz-adv-x="756" d="M62 32H134Q161 32 161 59V653Q161 667 155 673T134 680H62V712H347V680H280Q266 680 260 674T253 653V343L483 578Q496 592 502 606T508 638Q508 656 495 668T463 680H436V712H700V680H660Q627 680 570
621L402 451L606 76Q619 51 635 42T681 32H714V0H412V32H479Q490 32 498 38T506 53Q506 59 504 66T499 78L336 384L253 300V59Q253 32 280 32H347V0H62V32Z" />
<glyph unicode="L" glyph-name="L" horiz-adv-x="670" d="M62 32H134Q161 32 161 59V653Q161 667 155 673T134 680H62V712H368V680H280Q266 680 260 674T253 653V59Q253 32 280 32H381Q434 32 476 56T539 126Q555 160 565 198T581 264T587 298H612L603 0H62V32Z" />
<glyph unicode="M" glyph-name="M" horiz-adv-x="838" d="M207 622H201V112Q201 75 218 54T264 32H300V0H62V32H98Q126 32 143 53T161 112V653Q161 667 155 673T134 680H62V712H274L437 161L589 712H796V680H724Q710 680 704 674T697 653V59Q697 32 724 32H796V0H506V32H578Q605
32 605 59V649L422 -12H398L207 622Z" />
<glyph unicode="N" glyph-name="N" horiz-adv-x="770" d="M205 603H201V112Q201 75 218 54T264 32H300V0H62V32H98Q127 32 144 53T161 112V653Q160 667 154 673T134 680H62V712H251L598 154V600Q598 637 581 658T536 680H500V712H738V680H702Q674 680 656 659T638
600V-18H598L205 603Z" />
<glyph unicode="O" glyph-name="O" horiz-adv-x="700" d="M276 -18T210 35T107 174T70 356Q70 451 107 537T210 677T360 730Q444 730 510 677T613 538T650 356Q650 261 613 175T510 35T360 -18Q276 -18 210 35ZM458 14T501 103T544 356Q544 520 501 609T360 698Q262
698 219 609T176 356Q176 193 219 104T360 14Q458 14 501 103Z" />
<glyph unicode="P" glyph-name="P" horiz-adv-x="680" d="M62 32H134Q161 32 161 59V653Q161 667 155 673T134 680H62V712H396Q466 712 520 689T605 623T636 526Q636 471 606 428T521 361T396 336H253V59Q253 45 259 39T280 32H368V0H62V32ZM409 368Q463 368 496
414T530 526Q530 591 497 635T409 680H280Q266 680 260 674T253 653V368H409Z" />
<glyph unicode="Q" glyph-name="Q" horiz-adv-x="700" d="M475 -168T451 -123T422 -8Q386 -18 360 -18Q276 -18 210 36T107 177T70 360Q70 455 107 540T210 678T360 730Q444 730 510 678T613 541T650 360Q650 251 608 159T485 19Q496 -33 515 -64T567 -96Q605
-96 618 -56T631 50H650Q650 -51 627 -109T535 -168Q475 -168 451 -123ZM265 47Q260 59 260 75Q260 117 288 144T357 171Q404 171 432 141T473 63Q511 102 527 176T544 360Q544 523 502 610T360 698Q261 698 219 611T176 360Q176 257 194 174T264 46L265 47ZM392
14T419 25Q416 76 403 107T354 139Q328 139 311 122T294 74Q294 14 360 14Q392 14 419 25Z" />
<glyph unicode="R" glyph-name="R" horiz-adv-x="716" d="M547 -12T525 -1T489 35Q462 87 460 212Q459 279 436 323T362 368H253V59Q253 45 259 39T280 32H369V0H62V32H134Q161 32 161 59V653Q161 667 155 673T134 680H62V712H390Q487 712 549 675T611 552Q611
478 556 433T422 380V376Q479 365 515 324T564 182Q571 125 576 99T590 63T616 52Q659 52 659 160H684Q684 95 665 42T580 -12Q547 -12 525 -1ZM350 400Q434 400 469 440T505 552Q505 613 473 646T384 680H280Q266 680 260 674T253 653V400H350Z" />
<glyph unicode="S" glyph-name="S" horiz-adv-x="620" d="M309 -18T269 0T198 41Q156 73 148 73Q128 73 122 30L118 -10H95L88 306H112Q118 232 153 165T242 56T351 14Q433 14 470 54T508 150Q508 199 480 227T396 277L244 338Q165 370 128 420T90 542Q90 638
146 684T286 730Q352 730 432 670Q442 663 452 658T470 652Q487 652 490 676L494 712H518L528 452H504Q488 524 454 580T373 667T278 698Q222 698 186 662T150 560Q150 515 173 490T241 447L434 370Q501 343 534 293T568 188Q568 135 545 88T473 12T351 -18Q309
-18 269 0Z" />
<glyph unicode="T" glyph-name="T" horiz-adv-x="714" d="M198 32H294Q321 32 321 59V656Q321 670 315 676T294 683H258Q195 683 149 619Q120 578 110 517T100 426H72L80 712H654L662 426H634Q634 455 624 516T585 619Q539 683 476 683H440Q425 683 419 677T413
656V59Q413 32 440 32H536V0H198V32Z" />
<glyph unicode="U" glyph-name="U" horiz-adv-x="780" d="M324 -18T265 17T179 110T151 237V653Q151 667 145 673T124 680H52V712H343V680H270Q256 680 250 674T243 653V210Q243 117 288 66T414 14Q477 14 522 39T590 107T613 198V599Q613 636 595 658T549 680H514V712H752V680H717Q689
680 671 658T653 599V208Q653 145 625 94T542 12T414 -18Q324 -18 265 17Z" />
<glyph unicode="V" glyph-name="V" horiz-adv-x="772" d="M166 636Q157 661 143 670T107 680H44V712H364V680H298Q284 680 274 673T264 655Q264 644 268 633L439 152L571 558Q583 597 583 627Q583 648 572 664T532 680H478V712H748V680H711Q676 680 657 660T627
607L424 -18H399L166 636Z" />
<glyph unicode="W" glyph-name="W" horiz-adv-x="1068" d="M159 636Q150 661 136 670T100 680H38V712H334V680H286Q272 680 262 673T252 655Q252 647 256 633L389 173L510 611L500 643Q493 663 472 671T429 680H400V712H696V680H657Q606 680 606 628Q606 614 612
597L738 164L862 558Q869 585 871 599T874 635Q874 654 857 667T808 680H774V712H1044V680H1001Q967 680 949 660T920 607L721 -18H696L532 538L374 -18H349L159 636Z" />
<glyph unicode="X" glyph-name="X" horiz-adv-x="750" d="M46 32H77Q110 32 132 49T176 99L345 352L196 628Q181 656 166 668T117 680H56V712H366V680H306Q288 680 288 665Q288 659 290 652T296 639L404 439L499 581Q519 611 519 638Q519 655 506 667T470 680H439V712H709V680H664Q634
680 614 669T576 631L423 401L600 76Q614 51 628 42T662 32H724V0H414V32H474Q488 32 494 38T501 53Q501 59 499 66T494 78L366 314L251 139Q226 101 226 76Q226 58 235 45T262 32H316V0H46V32Z" />
<glyph unicode="Y" glyph-name="Y" horiz-adv-x="728" d="M224 32H320Q347 32 347 59V318L153 636Q138 662 126 671T94 680H42V712H352V680H292Q277 680 267 673T257 655Q257 640 262 633L420 366L522 562Q527 569 533 590T539 623Q539 647 526 663T484 680H454V712H702V680H673Q641
680 621 661T582 607L439 335V59Q439 32 466 32H562V0H224V32Z" />
<glyph unicode="Z" glyph-name="Z" horiz-adv-x="652" d="M68 32L482 680H294Q261 680 233 662T185 622Q161 594 145 558T121 491T113 456H88L112 712H588V680L178 32H378Q412 32 448 52T507 105Q532 141 548 184T573 263T581 302H606L590 0H68V32Z" />
<glyph unicode="[" glyph-name="bracketleft" horiz-adv-x="380" d="M120 -186V718L306 730L310 704L214 688Q203 687 198 678T192 656V-124Q192 -137 197 -146T214 -156L310 -172L306 -198L120 -186Z" />
<glyph unicode="\" glyph-name="backslash" horiz-adv-x="450" d="M354 -198L56 730H96L394 -198H354Z" />
<glyph unicode="]" glyph-name="bracketright" horiz-adv-x="380" d="M70 -172L166 -156Q177 -155 182 -146T188 -124V656Q188 669 183 678T166 688L70 704L74 730L260 718V-186L74 -198L70 -172Z" />
<glyph unicode="^" glyph-name="asciicircum" horiz-adv-x="580" d="M62 336L292 700L518 336H470L292 622L110 336H62Z" />
<glyph unicode="_" glyph-name="underscore" horiz-adv-x="520" d="M0 -158V-118H520V-158H0Z" />
<glyph unicode="`" glyph-name="grave" horiz-adv-x="369" d="M128 609Q100 630 100 653Q100 667 107 675T128 684Q142 684 153 677T177 652L269 519L256 508L128 609Z" />
<glyph unicode="a" glyph-name="a" horiz-adv-x="494" d="M123 -12T85 14T46 106Q46 157 72 186T132 227T216 249L308 266V351Q308 444 215 444Q181 444 153 427T125 387Q125 377 128 372Q130 369 134 366T143 362Q161 357 170 348T180 323Q180 302 168 293T136
284Q114 284 96 301T78 350Q78 387 98 414T151 454T218 468Q284 468 332 434T380 326V80Q380 30 411 30Q436 30 447 59T458 130H476Q476 70 459 29T396 -12Q353 -12 332 13T308 84L303 86Q288 51 255 20T176 -12Q123 -12 85 14ZM237 24T262 59T308 150V245L221
226Q173 216 152 187T130 103Q130 57 149 41T192 24Q237 24 262 59Z" />
<glyph unicode="b" glyph-name="b" horiz-adv-x="512" d="M248 -12T214 15T160 86H156L114 0H96V666Q96 678 91 683T74 688H22V712H168V382L172 381Q187 417 218 442T288 468Q335 468 375 437T440 350T464 228Q464 161 440 106T376 20T288 -12Q248 -12 214 15ZM326
16T351 71T376 228Q376 330 351 385T277 440Q247 440 222 418T183 358T168 274V182Q168 137 182 99T222 38T277 16Q326 16 351 71Z" />
<glyph unicode="c" glyph-name="c" horiz-adv-x="436" d="M186 -12T142 20T73 107T48 228Q48 294 73 349T142 436T244 468Q290 468 324 449T376 399T394 337Q394 306 378 289T339 271Q319 271 306 284T292 315Q292 333 302 345T326 361Q342 366 342 379Q342 391
332 406T299 432T244 444Q181 444 159 390T136 228Q136 120 158 66T244 12Q305 12 338 55T378 156H402Q399 115 381 77T328 13T244 -12Q186 -12 142 20Z" />
<glyph unicode="d" glyph-name="d" horiz-adv-x="522" d="M177 -12T137 19T72 106T48 228Q48 295 72 350T136 436T224 468Q263 468 294 443T340 381L344 382V666Q344 678 339 683T322 688H250V712H416V46Q416 34 421 29T438 24H490V0H344V74L340 75Q321 35 292
12T224 -12Q177 -12 137 19ZM265 16T290 38T329 98T344 182V274Q344 319 330 357T290 418T235 440Q186 440 161 385T136 228Q136 126 161 71T235 16Q265 16 290 38Z" />
<glyph unicode="e" glyph-name="e" horiz-adv-x="460" d="M161 -12T105 51T48 226Q48 290 73 345T142 434T242 468Q303 468 342 435T398 352T416 248Q416 237 409 234T385 230H136Q136 130 164 71T258 12Q304 12 344 47T396 156H420Q414 83 370 36T254 -12Q161
-12 105 51ZM330 254Q330 334 309 389T240 444Q189 444 163 389T136 254H330Z" />
<glyph unicode="f" glyph-name="f" horiz-adv-x="330" d="M28 24H80Q92 24 97 29T102 46V428H28V456H102V525Q102 592 124 636T182 700T255 720Q298 720 328 694T358 618Q358 592 346 577T311 562Q293 562 282 573T270 604Q270 614 275 624T288 640Q304 649 304
664Q304 681 289 688T253 696Q220 696 197 664T174 553V456H268V428H174V46Q174 34 179 29T196 24H268V0H28V24Z" />
<glyph unicode="g" glyph-name="g" horiz-adv-x="540" d="M180 -238T116 -210T52 -122Q52 -85 81 -57T150 -23V-20Q62 -1 62 54Q62 95 93 118T171 150V153Q129 171 100 207T70 304Q70 355 95 392T160 448T248 468Q277 468 305 459T354 437T381 416Q390 442 410
455T450 468Q484 468 506 448T528 396Q528 372 517 357T486 342Q470 342 458 350T446 378Q446 400 463 410Q469 414 471 417T474 428Q474 436 466 440T447 444Q429 444 415 430T398 396Q426 357 426 304Q426 254 402 217T338 160T248 140Q191 140 147 125T102 73Q102
54 119 47T166 40Q187 40 200 41Q212 42 231 42H334Q398 42 441 8T484 -94Q484 -164 425 -201T268 -238Q180 -238 116 -210ZM294 164T320 201T346 304Q346 370 320 407T248 444Q202 444 176 407T150 304Q150 238 176 201T248 164Q294 164 320 201ZM340 -214T394
-189T448 -102Q448 -71 430 -49T365 -26H254Q190 -26 143 -47T96 -120Q96 -167 149 -190T268 -214Q340 -214 394 -189Z" />
<glyph unicode="h" glyph-name="h" horiz-adv-x="544" d="M28 24H84Q96 24 101 29T106 46V666Q106 678 101 683T84 688H28V712H178V374L182 373Q205 421 239 444T314 468Q387 468 417 423T448 315V46Q448 34 453 29T470 24H512V0H312V24H354Q366 24 371 29T376
46V334Q376 378 359 409T299 440Q264 440 237 416T194 349T178 254V46Q178 34 183 29T200 24H242V0H28V24Z" />
<glyph unicode="i" glyph-name="i" horiz-adv-x="270" d="M110 580T95 595T80 632Q80 655 95 669T132 684Q155 684 169 670T184 632Q184 610 170 595T132 580Q110 580 95 595ZM38 24H80Q92 24 97 29T102 46V410Q102 422 97 427T80 432H38V456H174V46Q174 34 179
29T196 24H238V0H38V24Z" />
<glyph unicode="j" glyph-name="j" horiz-adv-x="320" d="M154 580T139 595T124 632Q124 655 139 669T176 684Q199 684 213 670T228 632Q228 610 214 595T176 580Q154 580 139 595ZM23 -238T-7 -213T-38 -144Q-38 -117 -23 -99T15 -80Q32 -80 42 -89T52 -114Q52
-126 47 -134T31 -152Q16 -166 16 -182Q16 -199 31 -206T67 -214Q100 -214 123 -182T146 -71V410Q146 422 141 427T124 432H52V456H218V-43Q218 -110 196 -154T138 -218T65 -238Q23 -238 -7 -213Z" />
<glyph unicode="k" glyph-name="k" horiz-adv-x="520" d="M28 24H80Q92 24 97 29T102 46V666Q102 678 97 683T80 688H28V712H174V203L310 369Q321 381 324 388T328 406Q328 419 319 425T294 432H268V456H472V432H440Q413 432 392 418T344 371L268 278L424 56Q436
39 445 32T470 24H490V0H278V24H304Q317 24 324 28T331 44Q331 55 328 62T318 80L220 220L174 164V46Q174 34 179 29T196 24H228V0H28V24Z" />
<glyph unicode="l" glyph-name="l" horiz-adv-x="270" d="M28 24H80Q92 24 97 29T102 46V666Q102 678 97 683T80 688H28V712H174V46Q174 34 179 29T196 24H248V0H28V24Z" />
<glyph unicode="m" glyph-name="m" horiz-adv-x="794" d="M38 24H80Q92 24 97 29T102 46V410Q102 422 97 427T80 432H38V456H174V376L178 375Q199 421 232 444T304 468Q363 468 391 436T430 360H434Q446 400 481 434T564 468Q637 468 667 419T698 304V46Q698 34
703 29T720 24H762V0H562V24H604Q616 24 621 29T626 46V339Q626 379 607 409T552 440Q522 440 496 417T453 352T436 260V46Q436 34 441 29T458 24H500V0H300V24H342Q354 24 359 29T364 46V339Q364 379 345 409T290 440Q260 440 234 417T191 352T174 260V46Q174
34 179 29T196 24H238V0H38V24Z" />
<glyph unicode="n" glyph-name="n" horiz-adv-x="540" d="M38 24H80Q92 24 97 29T102 46V410Q102 422 97 427T80 432H38V456H174V374L178 373Q201 421 235 444T310 468Q383 468 413 423T444 315V46Q444 34 449 29T466 24H508V0H308V24H350Q362 24 367 29T372 46V334Q372
378 355 409T295 440Q260 440 233 416T190 349T174 254V46Q174 34 179 29T196 24H238V0H38V24Z" />
<glyph unicode="o" glyph-name="o" horiz-adv-x="496" d="M193 -12T147 20T75 108T48 228Q48 293 74 348T147 435T248 468Q303 468 349 436T421 348T448 228Q448 163 422 108T349 21T248 -12Q193 -12 147 20ZM308 12T334 68T360 228Q360 331 334 387T248 444Q188
444 162 388T136 228Q136 125 162 69T248 12Q308 12 334 68Z" />
<glyph unicode="p" glyph-name="p" horiz-adv-x="518" d="M28 -206H80Q92 -206 97 -201T102 -184V410Q102 422 97 427T80 432H28V456H174V382L178 381Q197 421 226 444T294 468Q341 468 381 437T446 350T470 228Q470 161 446 106T382 20T294 -12Q255 -12 224 13T178
75L174 74V-184Q174 -196 179 -201T196 -206H248V-230H28V-206ZM332 16T357 71T382 228Q382 330 357 385T283 440Q253 440 228 418T189 358T174 274V182Q174 137 188 99T228 38T283 16Q332 16 357 71Z" />
<glyph unicode="q" glyph-name="q" horiz-adv-x="502" d="M270 -206H322Q334 -206 339 -201T344 -184V74L340 75Q325 39 294 14T224 -12Q177 -12 137 19T72 106T48 228Q48 295 72 350T136 436T224 468Q264 468 298 441T352 370H356L398 456H416V-184Q416 -196
421 -201T438 -206H490V-230H270V-206ZM265 16T290 38T329 98T344 182V274Q344 319 330 357T290 418T235 440Q186 440 161 385T136 228Q136 126 161 71T235 16Q265 16 290 38Z" />
<glyph unicode="r" glyph-name="r" horiz-adv-x="410" d="M38 24H80Q92 24 97 29T102 46V410Q102 422 97 427T80 432H38V456H174V356L178 355Q199 407 232 437T304 468Q342 468 366 446T390 386Q390 364 375 343T335 322Q316 322 303 332T290 360Q290 381 310
396Q319 402 323 407T328 420Q328 429 320 434T296 440Q265 440 237 410T191 332T174 232V46Q174 34 179 29T196 24H238V0H38V24Z" />
<glyph unicode="s" glyph-name="s" horiz-adv-x="434" d="M60 186H78L115 107Q169 12 255 12Q301 12 323 34T346 96Q346 119 329 137T282 167L168 213Q114 235 83 266T52 345Q52 406 90 437T186 468Q215 468 240 459T283 436Q305 420 316 420Q329 420 332 438L334
458H352V306H334L320 341Q297 398 260 421T185 444Q148 444 124 426T100 374Q100 345 123 327T188 291L296 246Q344 226 368 198T392 118Q392 51 354 20T254 -12Q217 -12 194 -2T149 25Q140 32 131 37T115 42Q91 42 82 8L78 -12H60V186Z" />
<glyph unicode="t" glyph-name="t" horiz-adv-x="350" d="M161 -12T132 20T102 107V428H28V456H50Q95 456 120 504T146 612V648H174V456H298V428H174V102Q174 72 186 52T227 32Q298 32 298 152H316Q316 85 297 37T206 -12Q161 -12 132 20Z" />
<glyph unicode="u" glyph-name="u" horiz-adv-x="534" d="M157 -12T127 33T96 141V410Q96 422 91 427T74 432H32V456H168V122Q168 78 185 47T245 16Q280 16 307 40T350 107T366 202V410Q366 422 361 427T344 432H302V456H438V46Q438 34 443 29T460 24H502V0H366V82L362
83Q339 35 305 12T230 -12Q157 -12 127 33Z" />
<glyph unicode="v" glyph-name="v" horiz-adv-x="530" d="M99 382Q89 408 79 420T47 432H18V456H234V432H206Q194 432 184 426T174 408Q174 391 180 375L292 105L373 342Q377 354 380 369T384 393Q384 410 374 421T348 432H324V456H506V432H483Q461 432 443 418T414
373L282 -12H264L99 382Z" />
<glyph unicode="w" glyph-name="w" horiz-adv-x="776" d="M103 373Q89 406 78 419T41 432H18V456H234V432H203Q189 432 182 424T174 404Q174 391 180 375L292 105L360 322Q363 331 365 341T367 358Q367 376 354 404Q348 418 341 425T320 432H290V456H506V432H466Q437
432 437 402Q437 391 445 370L538 105L619 342Q623 354 626 369T630 393Q630 432 594 432H570V456H752V432H729Q707 432 689 418T660 373L524 -12H506L386 316L282 -12H264L103 373Z" />
<glyph unicode="x" glyph-name="x" horiz-adv-x="520" d="M34 24H60Q84 24 100 38T133 79L224 215L102 410Q94 422 87 427T62 432H38V456H236V432H212Q192 432 192 412Q192 401 198 391L267 279L333 377Q342 390 342 409Q342 420 335 426T318 432H294V456H468V432H443Q422
432 406 422T374 388L283 254L410 50Q419 36 428 30T459 24H482V0H274V24H304Q315 24 321 28T327 41Q327 46 325 51T320 62L240 190L172 89Q157 65 157 54Q157 24 182 24H200V0H34V24Z" />
<glyph unicode="y" glyph-name="y" horiz-adv-x="530" d="M95 -238T70 -213Q57 -201 50 -185T42 -150Q42 -137 46 -126T58 -108Q73 -93 92 -93Q115 -93 126 -107T138 -144Q138 -156 130 -172Q124 -182 124 -191Q124 -206 144 -206Q174 -206 194 -183T225 -127L252
-40L110 373Q98 405 87 418T51 432H18V456H244V432H212Q200 432 190 426T180 408Q180 391 186 375L290 68L373 342Q377 354 380 369T384 393Q384 410 374 421T348 432H324V456H506V432H483Q461 432 443 418T414 373L253 -139Q242 -176 211 -207T134 -238Q95 -238
70 -213Z" />
<glyph unicode="z" glyph-name="z" horiz-adv-x="440" d="M40 26L300 432H178Q116 432 90 382Q75 352 68 320T60 280H40L46 456H382V424L123 24H250Q282 24 304 37T338 74Q353 104 360 136T368 176H388L382 0H40V26Z" />
<glyph unicode="{" glyph-name="braceleft" horiz-adv-x="420" d="M174 -147T174 -28Q174 -4 178 19T193 79Q210 139 210 174Q210 224 184 241T104 258V276Q141 276 163 281T197 303T210 354Q210 388 193 452Q183 492 179 515T174 562Q174 681 324 730L336 706Q285
688 260 669T234 612Q234 588 238 566T252 509Q261 477 265 454T270 406Q270 298 176 268V266Q216 253 243 219T270 122Q270 98 266 76T252 22Q243 -10 239 -32T234 -78Q234 -116 259 -135T336 -172L324 -196Q174 -147 174 -28Z" />
<glyph unicode="|" glyph-name="bar" horiz-adv-x="284" d="M120 -198V730H164V-198H120Z" />
<glyph unicode="}" glyph-name="braceright" horiz-adv-x="420" d="M84 -172Q135 -154 160 -135T186 -78Q186 -54 182 -32T168 25Q159 60 155 82T150 128Q150 236 244 266V268Q150 298 150 406Q150 430 154 453T168 509Q177 544 181 566T186 612Q186 650 161 669T84
706L96 730Q246 681 246 562Q246 538 242 515T227 452Q210 388 210 354Q210 320 222 303T257 281T316 276V258Q279 258 257 253T223 231T210 180Q210 146 227 82Q237 42 241 19T246 -28Q246 -147 96 -196L84 -172Z" />
<glyph unicode="~" glyph-name="asciitilde" horiz-adv-x="660" d="M81 177T65 200T48 253Q48 293 78 322T162 352Q204 352 251 336T370 288Q432 260 470 246T538 232Q554 232 566 244T578 278Q578 299 567 313T536 338L548 359Q579 345 595 322T612 269Q612 229
582 200T498 170Q455 170 406 186T290 234Q229 262 190 276T122 290Q106 290 94 278T82 244Q82 223 93 209T124 184L112 163Q81 177 65 200Z" />
<glyph unicode="&#xa0;" glyph-name="uni00A0" horiz-adv-x="280" />
<glyph unicode="&#xa1;" glyph-name="exclamdown" horiz-adv-x="280" d="M113 344T96 361T78 406Q78 433 95 450T140 468Q167 468 184 451T202 406Q202 379 185 362T140 344Q113 344 96 361ZM112 -238T95 -219T78 -166Q78 -112 95 -18Q109 57 112 100L128 300H152L168
100Q171 57 185 -18Q202 -112 202 -166Q202 -199 185 -218T140 -238Q112 -238 95 -219Z" />
<glyph unicode="&#xa2;" glyph-name="cent" horiz-adv-x="580" d="M290 -11Q206 -2 159 65T112 228Q112 290 135 342T198 428T290 467V576H322V467Q364 464 395 444T442 396T458 337Q458 306 442 289T403 271Q383 271 370 284T356 315Q356 333 366 345T390 361Q406
366 406 379Q406 390 397 404T369 429T322 443V12Q378 15 406 57T442 156H466Q462 92 426 42T322 -12V-120H290V-11ZM290 442Q243 430 222 367T200 228Q200 152 220 91T290 15V442Z" />
<glyph unicode="&#xa3;" glyph-name="sterling" horiz-adv-x="720" d="M422 -18T378 2T279 57Q257 32 225 10T162 -12Q121 -12 93 7T64 66Q64 101 93 123T156 146Q207 146 267 117Q273 142 274 161T276 216Q276 244 274 285T269 353Q217 362 204 362Q178 362 164
357T128 340L114 362Q129 375 147 382T196 390Q215 390 267 380Q266 394 266 430Q266 504 295 566T375 664T484 700Q536 700 568 679T613 628T627 577Q627 543 612 523T567 502Q546 502 532 515T517 549Q517 581 542 594Q555 601 560 606T565 623Q565 642 546 658T484
674Q454 674 425 656T376 599T357 502V364Q399 356 418 356Q444 356 459 361T494 378L508 356Q480 328 426 328Q409 328 357 337V272Q357 164 309 95Q347 72 399 60T499 48Q544 48 577 85T620 168L638 161Q603 -18 459 -18Q422 -18 378 2ZM186 12T211 31T251 79Q222
100 199 111T150 122Q125 122 109 106T92 66Q92 12 162 12Q186 12 211 31Z" />
<glyph unicode="&#xa4;" glyph-name="currency" horiz-adv-x="580" d="M52 136L119 203Q70 263 70 342Q70 381 83 417T120 482L52 550L83 581L150 514Q179 538 215 551T290 564Q329 564 365 551T430 514L497 581L528 550L460 482Q484 453 497 417T510 342Q510
263 461 203L528 136L497 105L430 172Q401 148 365 135T290 122Q251 122 215 135T150 172L83 105L52 136ZM341 162T382 185T446 250T470 342Q470 393 447 435T382 500T290 524Q239 524 198 501T134 435T110 342Q110 291 133 250T198 186T290 162Q341 162 382 185Z"
/>
<glyph unicode="&#xa5;" glyph-name="yen" horiz-adv-x="580" d="M136 32H210Q238 32 238 60V194H98V226H238V298H98V330H232L93 613Q84 632 75 642T49 652H14V684H242V652H209Q182 652 182 635Q182 628 190 610L311 364L420 562Q440 598 440 617Q440 630 433
641T406 652H364V684H564V652H542Q520 652 502 632T463 577L326 330H466V298H326V226H466V194H326V60Q326 46 332 39T354 32H428V0H136V32Z" />
<glyph unicode="&#xa6;" glyph-name="brokenbar" horiz-adv-x="284" d="M120 370V730H164V370H120ZM120 -168V192H164V-168H120Z" />
<glyph unicode="&#xa7;" glyph-name="section" horiz-adv-x="640" d="M241 -186T214 -173T169 -136T152 -84Q152 -58 167 -44T206 -30Q225 -30 239 -42T254 -72Q254 -88 249 -96T230 -113Q223 -117 221 -120T218 -132Q218 -146 233 -154T270 -162Q306 -162 333
-141T360 -84Q360 -45 345 -17T294 42L166 150Q132 181 116 211T100 286Q100 364 210 434Q150 488 150 562Q150 603 171 634T226 683T298 700Q344 700 380 671T416 600Q416 574 401 559T364 544Q343 544 329 557T314 588Q314 603 320 610T340 628Q346 632 348 635T350
646Q350 661 336 668T298 676Q262 676 235 656T208 598Q208 555 223 530T276 472L404 362Q441 331 455 302T470 226Q470 182 439 147T360 80Q386 52 402 19T418 -52Q418 -93 398 -123T343 -170T270 -186Q241 -186 214 -173ZM374 112T403 138T432 186Q432 217 422
239T388 280L248 400Q240 406 228 420Q138 364 138 326Q138 271 180 234L320 116Q334 104 342 94Q374 112 403 138Z" />
<glyph unicode="&#xa8;" glyph-name="dieresis" horiz-adv-x="484" d="M129 548T115 562T100 596Q100 616 114 630T148 644Q168 644 182 630T196 596Q196 577 182 563T148 548Q129 548 115 562ZM317 548T303 562T288 596Q288 616 302 630T336 644Q356 644 370
630T384 596Q384 577 370 563T336 548Q317 548 303 562Z" />
<glyph unicode="&#xa9;" glyph-name="copyright" horiz-adv-x="820" d="M309 -18T226 32T96 168T48 356Q48 458 95 543T226 679T410 730Q511 730 594 680T724 544T772 356Q772 254 725 169T594 33T410 -18Q309 -18 226 32ZM502 10T578 57T699 183T744 356Q744
449 700 528T579 655T410 702Q318 702 242 655T121 529T76 356Q76 263 120 184T241 57T410 10Q502 10 578 57ZM358 110T312 143T243 228T220 338Q220 411 244 468T315 558T424 590Q464 590 506 557Q512 552 515 551T526 550Q535 550 541 561T548 584H566V420H548Q544
458 524 492T476 546T424 566Q308 566 308 338Q308 263 335 199T422 134Q483 134 513 176T550 278H574Q570 212 532 161T422 110Q358 110 312 143Z" />
<glyph unicode="&#xaa;" glyph-name="ordfeminine" horiz-adv-x="380" d="M62 412T62 472Q62 506 91 529T159 570L208 592V630Q208 658 194 670T157 682Q135 682 119 673T102 651Q102 645 104 642Q106 639 112 639Q122 639 128 632T134 615Q134 603 126 597T106
590Q90 590 79 599T68 627Q68 660 95 680T156 700Q197 700 226 680T256 615V474Q256 437 279 437Q296 437 301 454T306 497H320Q320 463 309 438T268 412Q241 412 226 426T209 462L207 463Q195 444 176 428T132 412Q62 412 62 472ZM172 441T185 451T208 480V573L169
554Q143 541 131 521T118 478Q118 460 128 451T151 441Q172 441 185 451ZM70 362V386H310V362H70Z" />
<glyph unicode="&#xab;" glyph-name="guillemotleft" horiz-adv-x="480" d="M179 57T144 110T108 228Q108 293 143 346T224 428L239 413Q203 381 184 332T164 228Q164 173 183 124T239 43L224 28Q179 57 144 110ZM320 72T293 119T265 228Q265 289 292 336T352
410L366 396Q339 362 326 322T313 228Q313 175 326 135T366 60L352 46Q320 72 293 119Z" />
<glyph unicode="&#xac;" glyph-name="logicalnot" horiz-adv-x="580" d="M488 160V326H48V366H532V160H488Z" />
<glyph unicode="&#xad;" glyph-name="uni00AD" horiz-adv-x="370" d="M60 224V280H310V224H60Z" />
<glyph unicode="&#xae;" glyph-name="registered" horiz-adv-x="820" d="M309 -18T226 32T96 168T48 356Q48 458 95 543T226 679T410 730Q511 730 594 680T724 544T772 356Q772 254 725 169T594 33T410 -18Q309 -18 226 32ZM502 10T578 57T699 183T744 356Q744
449 700 528T579 655T410 702Q318 702 242 655T121 529T76 356Q76 263 120 184T241 57T410 10Q502 10 578 57ZM538 118T518 132Q503 143 494 170T481 233Q477 281 471 306T450 345T410 358H336V176Q336 164 341 159T358 154H402V130H200V154H242Q254 154 259 159T264
176V540Q264 552 259 557T242 562H200V586H428Q491 586 532 558T574 476Q574 424 537 399T462 368V364Q510 351 531 315T558 226Q563 183 569 167T594 150Q618 150 627 181T636 244H654Q654 197 637 158T569 118Q538 118 518 132ZM413 382Q446 382 466 405T486
470Q486 513 469 537T412 562H358Q346 562 341 557T336 540V382H413Z" />
<glyph unicode="&#xaf;" glyph-name="overscore" horiz-adv-x="460" d="M100 572V612H360V572H100Z" />
<glyph unicode="&#xb0;" glyph-name="degree" horiz-adv-x="580" d="M253 428T222 446T172 495T154 564Q154 601 172 632T221 682T290 700Q327 700 358 682T408 633T426 564Q426 527 408 496T359 446T290 428Q253 428 222 446ZM335 460T364 489T394 564Q394 609
365 638T290 668Q245 668 216 639T186 564Q186 519 215 490T290 460Q335 460 364 489Z" />
<glyph unicode="&#xb1;" glyph-name="plusminus" horiz-adv-x="940" d="M448 64V338H48V378H448V652H492V378H892V338H492V64H448ZM48 -40V0H884V-40H48Z" />
<glyph unicode="&#xb2;" glyph-name="uni00B2" horiz-adv-x="380" d="M60 314T73 346T134 415L197 464Q227 487 241 515T256 581Q256 622 232 649T164 676Q132 676 108 658T84 615Q84 601 91 595T111 585Q148 580 148 549Q148 537 139 530T114 522Q87 522 70 541T52
593Q52 639 89 669T182 700Q247 700 287 669T328 583Q328 546 300 514T227 453L163 410Q136 392 122 378T108 350Q108 336 128 336H250Q277 336 286 343T301 369L310 405H324L315 280H60Q60 314 73 346Z" />
<glyph unicode="&#xb3;" glyph-name="uni00B3" horiz-adv-x="380" d="M134 270T101 292T68 356Q68 378 82 393T118 408Q137 408 148 399T159 374Q159 361 151 352T129 342Q104 342 104 332Q104 294 185 294Q233 294 253 322T274 391Q274 440 253 464T198 488Q179
488 159 480Q147 474 132 474Q122 474 115 479T107 494Q107 504 114 509T132 514Q147 514 160 510Q174 506 200 506Q231 506 247 531T264 590Q264 629 245 652T188 675Q122 675 122 636Q122 624 138 617Q161 608 161 588Q161 575 152 567T126 559Q106 559 92 573T78
606Q78 649 112 674T195 700Q255 700 291 671T328 594Q328 558 302 533T244 501V496Q266 493 289 480T329 443T346 391Q346 336 300 303T185 270Q134 270 101 292Z" />
<glyph unicode="&#xb4;" glyph-name="acute" horiz-adv-x="369" d="M100 519L192 652Q205 670 216 677T241 684Q254 684 261 676T269 653Q269 630 241 609L113 508L100 519Z" />
<glyph unicode="&#xb5;" glyph-name="uni00B5" horiz-adv-x="606" d="M98 -282T82 -250T66 -183Q66 -123 78 -11Q88 82 88 132Q79 164 71 225T62 354Q62 403 73 433T114 464Q158 464 158 376Q158 342 131 192Q122 145 120 125Q130 85 163 60T243 34Q289 34 317
54T358 101T370 144Q370 171 361 230Q356 263 353 299T350 356Q350 466 402 466Q431 466 444 434T458 348Q458 296 446 216T415 89Q426 71 445 62T483 52Q514 52 532 71T556 117Q578 90 578 62Q578 29 561 9T513 -12Q450 -12 410 67L403 66Q385 35 351 13T264 -10Q210
-10 170 19T109 89Q104 57 104 30Q104 -48 114 -90T146 -173Q157 -195 162 -209T168 -236Q168 -258 157 -270T128 -282Q98 -282 82 -250Z" />
<glyph unicode="&#xb6;" glyph-name="paragraph" horiz-adv-x="540" d="M232 386Q159 386 112 429T64 544Q64 591 86 629T146 690T232 712H476V678H408V-156H370V678H270V-156H232V386Z" />
<glyph unicode="&#xb7;" glyph-name="middot" horiz-adv-x="280" d="M113 254T96 271T78 316Q78 343 95 360T140 378Q167 378 184 361T202 316Q202 289 185 272T140 254Q113 254 96 271Z" />
<glyph unicode="&#xb8;" glyph-name="cedilla" horiz-adv-x="386" d="M151 -212T126 -196T100 -149Q100 -138 107 -130T124 -122Q147 -122 151 -154Q158 -194 191 -194Q219 -194 233 -182T248 -146Q248 -98 190 -98H149L165 0H188L180 -50H206Q239 -50 262 -68T286
-122Q286 -159 262 -185T184 -212Q151 -212 126 -196Z" />
<glyph unicode="&#xb9;" glyph-name="uni00B9" horiz-adv-x="380" d="M84 302H147Q156 302 160 305T164 317V594H84V622H124Q159 622 179 642T206 690H228V317Q228 309 232 306T245 302H308V278H84V302Z" />
<glyph unicode="&#xba;" glyph-name="ordmasculine" horiz-adv-x="380" d="M156 412T129 431T86 484T70 556Q70 595 86 628T129 680T189 700Q222 700 250 681T294 628T310 556Q310 517 294 484T250 432T189 412Q156 412 129 431ZM224 430T239 468T254 556Q254
606 239 644T189 682Q155 682 141 645T126 556Q126 505 140 468T189 430Q224 430 239 468ZM70 362V386H310V362H70Z" />
<glyph unicode="&#xbb;" glyph-name="guillemotright" horiz-adv-x="480" d="M241 43Q277 75 296 124T316 228Q316 283 297 332T241 413L256 428Q301 399 336 346T372 228Q372 163 337 110T256 28L241 43ZM114 60Q141 94 154 134T167 228Q167 281 154 321T114
396L128 410Q160 384 187 337T215 228Q215 167 188 120T128 46L114 60Z" />
<glyph unicode="&#xbc;" glyph-name="onequarter" horiz-adv-x="820" d="M178 -18L606 700H642L214 -18H178ZM84 302H147Q156 302 160 305T164 317V594H84V622H124Q159 622 179 642T206 690H228V317Q228 309 232 306T245 302H308V278H84V302ZM566 22H621Q630 22
634 25T638 37V118H484V146L650 410H702V146H774V118H702V37Q702 29 706 26T719 22H774V-2H566V22ZM512 146H638V349L512 146Z" />
<glyph unicode="&#xbd;" glyph-name="onehalf" horiz-adv-x="820" d="M178 -18L606 700H642L214 -18H178ZM84 302H147Q156 302 160 305T164 317V594H84V622H124Q159 622 179 642T206 690H228V317Q228 309 232 306T245 302H308V278H84V302ZM500 34T513 66T574 135L637
184Q667 207 681 235T696 301Q696 342 672 369T604 396Q572 396 548 378T524 335Q524 321 531 315T551 305Q588 300 588 269Q588 257 579 250T554 242Q527 242 510 261T492 313Q492 359 529 389T622 420Q687 420 727 389T768 303Q768 266 740 234T667 173L603 130Q576
112 562 98T548 70Q548 56 568 56H690Q717 56 726 63T741 89L750 125H764L755 0H500Q500 34 513 66Z" />
<glyph unicode="&#xbe;" glyph-name="threequarters" horiz-adv-x="820" d="M134 270T101 292T68 356Q68 378 82 393T118 408Q137 408 148 399T159 374Q159 361 151 352T129 342Q104 342 104 332Q104 294 185 294Q233 294 253 322T274 391Q274 440 253 464T198
488Q179 488 159 480Q147 474 132 474Q122 474 115 479T107 494Q107 504 114 509T132 514Q147 514 160 510Q174 506 200 506Q231 506 247 531T264 590Q264 629 245 652T188 675Q122 675 122 636Q122 624 138 617Q161 608 161 588Q161 575 152 567T126 559Q106 559
92 573T78 606Q78 649 112 674T195 700Q255 700 291 671T328 594Q328 558 302 533T244 501V496Q266 493 289 480T329 443T346 391Q346 336 300 303T185 270Q134 270 101 292ZM178 -18L606 700H642L214 -18H178ZM566 22H621Q630 22 634 25T638 37V118H484V146L650
410H702V146H774V118H702V37Q702 29 706 26T719 22H774V-2H566V22ZM512 146H638V349L512 146Z" />
<glyph unicode="&#xbf;" glyph-name="questiondown" horiz-adv-x="470" d="M187 344T170 361T152 406Q152 433 169 450T214 468Q241 468 258 451T276 406Q276 379 259 362T214 344Q187 344 170 361ZM178 -238T133 -221T61 -169T34 -86Q34 -45 55 -11T105 48T181
105Q270 166 270 224Q270 249 255 260T214 272Q188 272 171 254T154 206Q154 190 159 180L141 172Q130 190 130 207Q130 234 142 256T175 290T214 302Q253 302 278 281T304 221Q304 191 293 170T256 122L180 40Q151 8 137 -20T122 -86Q122 -139 151 -173T237 -208Q267
-208 294 -197T337 -168T354 -130Q354 -107 348 -101Q343 -97 338 -97Q331 -97 328 -98Q321 -100 310 -100Q293 -100 284 -89T274 -60Q274 -39 288 -26T329 -12Q357 -12 377 -35T398 -99Q398 -138 373 -170T309 -220T230 -238Q178 -238 133 -221Z" />
<glyph unicode="&#xc0;" glyph-name="Agrave" horiz-adv-x="764" d="M280 863Q252 884 252 907Q252 921 259 929T280 938Q294 938 305 931T329 906L421 773L408 762L280 863ZM46 32H83Q142 32 169 105L384 712H409L626 76Q636 51 650 42T686 32H742V0H432V32H498Q513
32 523 39T533 57Q533 70 529 79L482 212H248L224 145Q210 105 210 87Q210 65 221 49T259 32H320V0H46V32ZM259 244H471L367 549L259 244Z" />
<glyph unicode="&#xc1;" glyph-name="Aacute" horiz-adv-x="764" d="M371 773L463 906Q476 924 487 931T512 938Q525 938 532 930T540 907Q540 884 512 863L384 762L371 773ZM46 32H83Q142 32 169 105L384 712H409L626 76Q636 51 650 42T686 32H742V0H432V32H498Q513
32 523 39T533 57Q533 70 529 79L482 212H248L224 145Q210 105 210 87Q210 65 221 49T259 32H320V0H46V32ZM259 244H471L367 549L259 244Z" />
<glyph unicode="&#xc2;" glyph-name="Acircumflex" horiz-adv-x="764" d="M238 778Q329 830 376 920H416Q463 830 554 778L544 762Q518 771 473 800T396 858Q365 830 320 801T248 762L238 778ZM46 32H83Q142 32 169 105L384 712H409L626 76Q636 51 650 42T686
32H742V0H432V32H498Q513 32 523 39T533 57Q533 70 529 79L482 212H248L224 145Q210 105 210 87Q210 65 221 49T259 32H320V0H46V32ZM259 244H471L367 549L259 244Z" />
<glyph unicode="&#xc3;" glyph-name="Atilde" horiz-adv-x="764" d="M240 810Q243 848 265 875T326 902Q355 902 416 881Q465 864 488 864Q506 864 517 875T532 906L552 904Q549 866 527 839T466 812Q437 812 376 833Q327 850 304 850Q286 850 275 839T260 808L240
810ZM46 32H83Q142 32 169 105L384 712H409L626 76Q636 51 650 42T686 32H742V0H432V32H498Q513 32 523 39T533 57Q533 70 529 79L482 212H248L224 145Q210 105 210 87Q210 65 221 49T259 32H320V0H46V32ZM259 244H471L367 549L259 244Z" />
<glyph unicode="&#xc4;" glyph-name="Adieresis" horiz-adv-x="764" d="M272 798T257 813T242 850Q242 873 257 887T294 902Q317 902 331 888T346 850Q346 828 332 813T294 798Q272 798 257 813ZM476 798T461 813T446 850Q446 873 461 887T498 902Q521 902 535
888T550 850Q550 828 536 813T498 798Q476 798 461 813ZM46 32H83Q142 32 169 105L384 712H409L626 76Q636 51 650 42T686 32H742V0H432V32H498Q513 32 523 39T533 57Q533 70 529 79L482 212H248L224 145Q210 105 210 87Q210 65 221 49T259 32H320V0H46V32ZM259
244H471L367 549L259 244Z" />
<glyph unicode="&#xc5;" glyph-name="Aring" horiz-adv-x="764" d="M356 752T327 781T298 850Q298 891 327 919T396 948Q437 948 465 920T494 850Q494 810 466 781T396 752Q356 752 327 781ZM427 776T448 797T470 850Q470 881 449 902T396 924Q365 924 344 903T322
850Q322 819 343 798T396 776Q427 776 448 797ZM46 32H83Q142 32 169 105L384 712H409L626 76Q636 51 650 42T686 32H742V0H432V32H498Q513 32 523 39T533 57Q533 70 529 79L482 212H248L224 145Q210 105 210 87Q210 65 221 49T259 32H320V0H46V32ZM259 244H471L367
549L259 244Z" />
<glyph unicode="&#xc6;" glyph-name="AE" horiz-adv-x="1004" d="M26 32H58Q96 32 119 52T159 105L425 608Q442 639 442 659Q442 670 437 675T417 680H376V712H934L938 462H913Q913 482 905 530T871 616Q829 680 753 680H594Q580 680 574 674T567 653V384H644Q695
384 717 436T740 547H766V189H740Q740 248 718 300T644 352H567V59Q567 32 594 32H754Q783 32 813 45T864 85Q884 113 897 155T915 231T921 276H946L934 0H381V32H448Q475 32 475 59V212H259L223 145Q205 111 205 85Q205 62 213 47T249 32H296V0H26V32ZM276 244H475V620L276
244Z" />
<glyph unicode="&#xc7;" glyph-name="Ccedilla" horiz-adv-x="670" d="M328 -238T298 -220T268 -168Q268 -156 275 -147T295 -138Q321 -138 327 -173Q330 -192 344 -203T379 -214Q410 -214 425 -201T440 -164Q440 -112 372 -112H323L340 -17Q255 -9 194 46T102
186T70 362Q70 463 104 547T201 680T348 730Q392 730 431 710T495 667Q519 645 527 645Q535 645 538 650T546 666L565 722H590L594 412H566Q544 507 509 571T433 667T350 698Q255 698 216 612T176 362Q176 193 217 104T366 14Q462 14 512 85T570 259H606Q603 200
582 137T507 28T366 -18L359 -56H390Q429 -56 456 -77T484 -137Q484 -179 456 -208T366 -238Q328 -238 298 -220Z" />
<glyph unicode="&#xc8;" glyph-name="Egrave" horiz-adv-x="690" d="M252 863Q224 884 224 907Q224 921 231 929T252 938Q266 938 277 931T301 906L393 773L380 762L252 863ZM62 32H134Q161 32 161 59V653Q161 667 155 673T134 680H62V712H620L624 462H599Q599
482 591 530T557 616Q515 680 439 680H280Q266 680 260 674T253 653V384H330Q381 384 403 436T426 547H452V189H426Q426 248 404 300T330 352H253V59Q253 32 280 32H440Q469 32 499 45T550 85Q570 113 583 155T601 231T607 276H632L620 0H62V32Z" />
<glyph unicode="&#xc9;" glyph-name="Eacute" horiz-adv-x="690" d="M343 773L435 906Q448 924 459 931T484 938Q497 938 504 930T512 907Q512 884 484 863L356 762L343 773ZM62 32H134Q161 32 161 59V653Q161 667 155 673T134 680H62V712H620L624 462H599Q599
482 591 530T557 616Q515 680 439 680H280Q266 680 260 674T253 653V384H330Q381 384 403 436T426 547H452V189H426Q426 248 404 300T330 352H253V59Q253 32 280 32H440Q469 32 499 45T550 85Q570 113 583 155T601 231T607 276H632L620 0H62V32Z" />
<glyph unicode="&#xca;" glyph-name="Ecircumflex" horiz-adv-x="690" d="M210 778Q301 830 348 920H388Q435 830 526 778L516 762Q490 771 445 800T368 858Q337 830 292 801T220 762L210 778ZM62 32H134Q161 32 161 59V653Q161 667 155 673T134 680H62V712H620L624
462H599Q599 482 591 530T557 616Q515 680 439 680H280Q266 680 260 674T253 653V384H330Q381 384 403 436T426 547H452V189H426Q426 248 404 300T330 352H253V59Q253 32 280 32H440Q469 32 499 45T550 85Q570 113 583 155T601 231T607 276H632L620 0H62V32Z" />
<glyph unicode="&#xcb;" glyph-name="Edieresis" horiz-adv-x="690" d="M244 798T229 813T214 850Q214 873 229 887T266 902Q289 902 303 888T318 850Q318 828 304 813T266 798Q244 798 229 813ZM448 798T433 813T418 850Q418 873 433 887T470 902Q493 902 507
888T522 850Q522 828 508 813T470 798Q448 798 433 813ZM62 32H134Q161 32 161 59V653Q161 667 155 673T134 680H62V712H620L624 462H599Q599 482 591 530T557 616Q515 680 439 680H280Q266 680 260 674T253 653V384H330Q381 384 403 436T426 547H452V189H426Q426
248 404 300T330 352H253V59Q253 32 280 32H440Q469 32 499 45T550 85Q570 113 583 155T601 231T607 276H632L620 0H62V32Z" />
<glyph unicode="&#xcc;" glyph-name="Igrave" horiz-adv-x="394" d="M92 863Q64 884 64 907Q64 921 71 929T92 938Q106 938 117 931T141 906L233 773L220 762L92 863ZM62 32H134Q161 32 161 59V653Q161 667 155 673T134 680H62V712H352V680H280Q266 680 260 674T253
653V59Q253 32 280 32H352V0H62V32Z" />
<glyph unicode="&#xcd;" glyph-name="Iacute" horiz-adv-x="394" d="M183 773L275 906Q288 924 299 931T324 938Q337 938 344 930T352 907Q352 884 324 863L196 762L183 773ZM62 32H134Q161 32 161 59V653Q161 667 155 673T134 680H62V712H352V680H280Q266 680
260 674T253 653V59Q253 32 280 32H352V0H62V32Z" />
<glyph unicode="&#xce;" glyph-name="Icircumflex" horiz-adv-x="394" d="M50 778Q141 830 188 920H228Q275 830 366 778L356 762Q330 771 285 800T208 858Q177 830 132 801T60 762L50 778ZM62 32H134Q161 32 161 59V653Q161 667 155 673T134 680H62V712H352V680H280Q266
680 260 674T253 653V59Q253 32 280 32H352V0H62V32Z" />
<glyph unicode="&#xcf;" glyph-name="Idieresis" horiz-adv-x="394" d="M84 798T69 813T54 850Q54 873 69 887T106 902Q129 902 143 888T158 850Q158 828 144 813T106 798Q84 798 69 813ZM288 798T273 813T258 850Q258 873 273 887T310 902Q333 902 347 888T362
850Q362 828 348 813T310 798Q288 798 273 813ZM62 32H134Q161 32 161 59V653Q161 667 155 673T134 680H62V712H352V680H280Q266 680 260 674T253 653V59Q253 32 280 32H352V0H62V32Z" />
<glyph unicode="&#xd0;" glyph-name="Eth" horiz-adv-x="768" d="M62 32H134Q161 32 161 59V356H68V392H161V653Q161 667 155 673T134 680H62V712H428Q511 712 580 668T689 544T730 362Q730 260 690 177T580 47T428 0H62V32ZM424 32Q494 32 539 79T604 201T624
362Q624 496 576 588T424 680H280Q266 680 260 674T253 653V392H368V356H253V59Q253 32 280 32H424Z" />
<glyph unicode="&#xd1;" glyph-name="Ntilde" horiz-adv-x="770" d="M260 810Q263 848 285 875T346 902Q375 902 436 881Q485 864 508 864Q526 864 537 875T552 906L572 904Q569 866 547 839T486 812Q457 812 396 833Q347 850 324 850Q306 850 295 839T280 808L260
810ZM205 603H201V112Q201 75 218 54T264 32H300V0H62V32H98Q127 32 144 53T161 112V653Q160 667 154 673T134 680H62V712H251L598 154V600Q598 637 581 658T536 680H500V712H738V680H702Q674 680 656 659T638 600V-18H598L205 603Z" />
<glyph unicode="&#xd2;" glyph-name="Ograve" horiz-adv-x="700" d="M244 863Q216 884 216 907Q216 921 223 929T244 938Q258 938 269 931T293 906L385 773L372 762L244 863ZM276 -18T210 35T107 174T70 356Q70 451 107 537T210 677T360 730Q444 730 510 677T613
538T650 356Q650 261 613 175T510 35T360 -18Q276 -18 210 35ZM458 14T501 103T544 356Q544 520 501 609T360 698Q262 698 219 609T176 356Q176 193 219 104T360 14Q458 14 501 103Z" />
<glyph unicode="&#xd3;" glyph-name="Oacute" horiz-adv-x="700" d="M335 773L427 906Q440 924 451 931T476 938Q489 938 496 930T504 907Q504 884 476 863L348 762L335 773ZM276 -18T210 35T107 174T70 356Q70 451 107 537T210 677T360 730Q444 730 510 677T613
538T650 356Q650 261 613 175T510 35T360 -18Q276 -18 210 35ZM458 14T501 103T544 356Q544 520 501 609T360 698Q262 698 219 609T176 356Q176 193 219 104T360 14Q458 14 501 103Z" />
<glyph unicode="&#xd4;" glyph-name="Ocircumflex" horiz-adv-x="700" d="M202 778Q293 830 340 920H380Q427 830 518 778L508 762Q482 771 437 800T360 858Q329 830 284 801T212 762L202 778ZM276 -18T210 35T107 174T70 356Q70 451 107 537T210 677T360 730Q444
730 510 677T613 538T650 356Q650 261 613 175T510 35T360 -18Q276 -18 210 35ZM458 14T501 103T544 356Q544 520 501 609T360 698Q262 698 219 609T176 356Q176 193 219 104T360 14Q458 14 501 103Z" />
<glyph unicode="&#xd5;" glyph-name="Otilde" horiz-adv-x="700" d="M204 810Q207 848 229 875T290 902Q319 902 380 881Q429 864 452 864Q470 864 481 875T496 906L516 904Q513 866 491 839T430 812Q401 812 340 833Q291 850 268 850Q250 850 239 839T224 808L204
810ZM276 -18T210 35T107 174T70 356Q70 451 107 537T210 677T360 730Q444 730 510 677T613 538T650 356Q650 261 613 175T510 35T360 -18Q276 -18 210 35ZM458 14T501 103T544 356Q544 520 501 609T360 698Q262 698 219 609T176 356Q176 193 219 104T360 14Q458
14 501 103Z" />
<glyph unicode="&#xd6;" glyph-name="Odieresis" horiz-adv-x="700" d="M236 798T221 813T206 850Q206 873 221 887T258 902Q281 902 295 888T310 850Q310 828 296 813T258 798Q236 798 221 813ZM440 798T425 813T410 850Q410 873 425 887T462 902Q485 902 499
888T514 850Q514 828 500 813T462 798Q440 798 425 813ZM276 -18T210 35T107 174T70 356Q70 451 107 537T210 677T360 730Q444 730 510 677T613 538T650 356Q650 261 613 175T510 35T360 -18Q276 -18 210 35ZM458 14T501 103T544 356Q544 520 501 609T360 698Q262
698 219 609T176 356Q176 193 219 104T360 14Q458 14 501 103Z" />
<glyph unicode="&#xd7;" glyph-name="multiply" horiz-adv-x="940" d="M188 -50L156 -18L439 264L156 546L188 578L470 295L752 578L784 546L501 264L784 -18L752 -50L470 233L188 -50Z" />
<glyph unicode="&#xd8;" glyph-name="Oslash" horiz-adv-x="700" d="M70 6L145 105Q109 157 90 222T70 356Q70 451 106 537T209 677T360 730Q415 730 463 707T549 641L616 730L648 706L574 608Q611 556 630 491T650 356Q650 261 613 175T510 35T360 -18Q305 -18
257 5T170 72L102 -18L70 6ZM510 589Q466 698 360 698Q262 698 219 609T176 356Q176 249 194 171L510 589ZM458 14T501 103T544 356Q544 467 525 543L209 124Q254 14 360 14Q458 14 501 103Z" />
<glyph unicode="&#xd9;" glyph-name="Ugrave" horiz-adv-x="780" d="M296 863Q268 884 268 907Q268 921 275 929T296 938Q310 938 321 931T345 906L437 773L424 762L296 863ZM324 -18T265 17T179 110T151 237V653Q151 667 145 673T124 680H52V712H343V680H270Q256
680 250 674T243 653V210Q243 117 288 66T414 14Q477 14 522 39T590 107T613 198V599Q613 636 595 658T549 680H514V712H752V680H717Q689 680 671 658T653 599V208Q653 145 625 94T542 12T414 -18Q324 -18 265 17Z" />
<glyph unicode="&#xda;" glyph-name="Uacute" horiz-adv-x="780" d="M387 773L479 906Q492 924 503 931T528 938Q541 938 548 930T556 907Q556 884 528 863L400 762L387 773ZM324 -18T265 17T179 110T151 237V653Q151 667 145 673T124 680H52V712H343V680H270Q256
680 250 674T243 653V210Q243 117 288 66T414 14Q477 14 522 39T590 107T613 198V599Q613 636 595 658T549 680H514V712H752V680H717Q689 680 671 658T653 599V208Q653 145 625 94T542 12T414 -18Q324 -18 265 17Z" />
<glyph unicode="&#xdb;" glyph-name="Ucircumflex" horiz-adv-x="780" d="M254 778Q345 830 392 920H432Q479 830 570 778L560 762Q534 771 489 800T412 858Q381 830 336 801T264 762L254 778ZM324 -18T265 17T179 110T151 237V653Q151 667 145 673T124 680H52V712H343V680H270Q256
680 250 674T243 653V210Q243 117 288 66T414 14Q477 14 522 39T590 107T613 198V599Q613 636 595 658T549 680H514V712H752V680H717Q689 680 671 658T653 599V208Q653 145 625 94T542 12T414 -18Q324 -18 265 17Z" />
<glyph unicode="&#xdc;" glyph-name="Udieresis" horiz-adv-x="780" d="M288 798T273 813T258 850Q258 873 273 887T310 902Q333 902 347 888T362 850Q362 828 348 813T310 798Q288 798 273 813ZM492 798T477 813T462 850Q462 873 477 887T514 902Q537 902 551
888T566 850Q566 828 552 813T514 798Q492 798 477 813ZM324 -18T265 17T179 110T151 237V653Q151 667 145 673T124 680H52V712H343V680H270Q256 680 250 674T243 653V210Q243 117 288 66T414 14Q477 14 522 39T590 107T613 198V599Q613 636 595 658T549 680H514V712H752V680H717Q689
680 671 658T653 599V208Q653 145 625 94T542 12T414 -18Q324 -18 265 17Z" />
<glyph unicode="&#xdd;" glyph-name="Yacute" horiz-adv-x="728" d="M367 773L459 906Q472 924 483 931T508 938Q521 938 528 930T536 907Q536 884 508 863L380 762L367 773ZM224 32H320Q347 32 347 59V318L153 636Q138 662 126 671T94 680H42V712H352V680H292Q277
680 267 673T257 655Q257 640 262 633L420 366L522 562Q527 569 533 590T539 623Q539 647 526 663T484 680H454V712H702V680H673Q641 680 621 661T582 607L439 335V59Q439 32 466 32H562V0H224V32Z" />
<glyph unicode="&#xde;" glyph-name="Thorn" horiz-adv-x="680" d="M62 32H134Q161 32 161 59V653Q161 667 155 673T134 680H62V712H368V680H280Q266 680 260 674T253 653V586H396Q466 586 520 563T605 497T636 400Q636 345 606 302T521 235T396 210H253V59Q253
32 280 32H368V0H62V32ZM409 242Q463 242 496 288T530 400Q530 465 497 509T409 554H280Q266 554 260 548T253 527V242H409Z" />
<glyph unicode="&#xdf;" glyph-name="germandbls" horiz-adv-x="526" d="M266 -12T234 15T202 84Q202 113 217 128T254 144Q278 144 288 132T298 102Q298 88 290 80T268 64Q256 57 256 48Q256 31 272 22T313 12Q350 12 370 49T390 178Q390 283 356 349T260 416H222V444H260Q314
444 340 484T366 580Q366 694 283 694Q255 694 231 676T190 621T174 528V0H28V24H80Q92 24 97 29T102 46V509Q102 578 129 625T199 695T288 718Q358 718 400 681T442 585Q442 544 420 512T364 460T299 432V428Q371 407 424 346T478 178Q478 121 456 78T396 11T312
-12Q266 -12 234 15Z" />
<glyph unicode="&#xe0;" glyph-name="agrave" horiz-adv-x="494" d="M112 609Q84 630 84 653Q84 667 91 675T112 684Q126 684 137 677T161 652L253 519L240 508L112 609ZM123 -12T85 14T46 106Q46 157 72 186T132 227T216 249L308 266V351Q308 444 215 444Q181
444 153 427T125 387Q125 377 128 372Q130 369 134 366T143 362Q161 357 170 348T180 323Q180 302 168 293T136 284Q114 284 96 301T78 350Q78 387 98 414T151 454T218 468Q284 468 332 434T380 326V80Q380 30 411 30Q436 30 447 59T458 130H476Q476 70 459 29T396
-12Q353 -12 332 13T308 84L303 86Q288 51 255 20T176 -12Q123 -12 85 14ZM237 24T262 59T308 150V245L221 226Q173 216 152 187T130 103Q130 57 149 41T192 24Q237 24 262 59Z" />
<glyph unicode="&#xe1;" glyph-name="aacute" horiz-adv-x="494" d="M203 519L295 652Q308 670 319 677T344 684Q357 684 364 676T372 653Q372 630 344 609L216 508L203 519ZM123 -12T85 14T46 106Q46 157 72 186T132 227T216 249L308 266V351Q308 444 215 444Q181
444 153 427T125 387Q125 377 128 372Q130 369 134 366T143 362Q161 357 170 348T180 323Q180 302 168 293T136 284Q114 284 96 301T78 350Q78 387 98 414T151 454T218 468Q284 468 332 434T380 326V80Q380 30 411 30Q436 30 447 59T458 130H476Q476 70 459 29T396
-12Q353 -12 332 13T308 84L303 86Q288 51 255 20T176 -12Q123 -12 85 14ZM237 24T262 59T308 150V245L221 226Q173 216 152 187T130 103Q130 57 149 41T192 24Q237 24 262 59Z" />
<glyph unicode="&#xe2;" glyph-name="acircumflex" horiz-adv-x="494" d="M97 521Q172 570 208 672H248Q284 570 359 521L350 508Q281 544 228 600Q174 543 106 508L97 521ZM123 -12T85 14T46 106Q46 157 72 186T132 227T216 249L308 266V351Q308 444 215 444Q181
444 153 427T125 387Q125 377 128 372Q130 369 134 366T143 362Q161 357 170 348T180 323Q180 302 168 293T136 284Q114 284 96 301T78 350Q78 387 98 414T151 454T218 468Q284 468 332 434T380 326V80Q380 30 411 30Q436 30 447 59T458 130H476Q476 70 459 29T396
-12Q353 -12 332 13T308 84L303 86Q288 51 255 20T176 -12Q123 -12 85 14ZM237 24T262 59T308 150V245L221 226Q173 216 152 187T130 103Q130 57 149 41T192 24Q237 24 262 59Z" />
<glyph unicode="&#xe3;" glyph-name="atilde" horiz-adv-x="494" d="M86 558Q92 594 114 620T172 646Q191 646 208 641T247 626Q266 618 279 614T307 610Q341 610 353 652L370 648Q364 612 342 586T284 560Q265 560 248 565T209 580Q190 588 177 592T149 596Q115
596 103 554L86 558ZM123 -12T85 14T46 106Q46 157 72 186T132 227T216 249L308 266V351Q308 444 215 444Q181 444 153 427T125 387Q125 377 128 372Q130 369 134 366T143 362Q161 357 170 348T180 323Q180 302 168 293T136 284Q114 284 96 301T78 350Q78 387 98
414T151 454T218 468Q284 468 332 434T380 326V80Q380 30 411 30Q436 30 447 59T458 130H476Q476 70 459 29T396 -12Q353 -12 332 13T308 84L303 86Q288 51 255 20T176 -12Q123 -12 85 14ZM237 24T262 59T308 150V245L221 226Q173 216 152 187T130 103Q130 57 149
41T192 24Q237 24 262 59Z" />
<glyph unicode="&#xe4;" glyph-name="adieresis" horiz-adv-x="494" d="M115 548T101 562T86 596Q86 616 100 630T134 644Q154 644 168 630T182 596Q182 577 168 563T134 548Q115 548 101 562ZM303 548T289 562T274 596Q274 616 288 630T322 644Q342 644 356 630T370
596Q370 577 356 563T322 548Q303 548 289 562ZM123 -12T85 14T46 106Q46 157 72 186T132 227T216 249L308 266V351Q308 444 215 444Q181 444 153 427T125 387Q125 377 128 372Q130 369 134 366T143 362Q161 357 170 348T180 323Q180 302 168 293T136 284Q114 284
96 301T78 350Q78 387 98 414T151 454T218 468Q284 468 332 434T380 326V80Q380 30 411 30Q436 30 447 59T458 130H476Q476 70 459 29T396 -12Q353 -12 332 13T308 84L303 86Q288 51 255 20T176 -12Q123 -12 85 14ZM237 24T262 59T308 150V245L221 226Q173 216
152 187T130 103Q130 57 149 41T192 24Q237 24 262 59Z" />
<glyph unicode="&#xe5;" glyph-name="aring" horiz-adv-x="494" d="M188 500T159 529T130 598Q130 639 159 667T228 696Q269 696 297 668T326 598Q326 558 298 529T228 500Q188 500 159 529ZM259 524T280 545T302 598Q302 629 281 650T228 672Q197 672 176 651T154
598Q154 567 175 546T228 524Q259 524 280 545ZM123 -12T85 14T46 106Q46 157 72 186T132 227T216 249L308 266V351Q308 444 215 444Q181 444 153 427T125 387Q125 377 128 372Q130 369 134 366T143 362Q161 357 170 348T180 323Q180 302 168 293T136 284Q114 284
96 301T78 350Q78 387 98 414T151 454T218 468Q284 468 332 434T380 326V80Q380 30 411 30Q436 30 447 59T458 130H476Q476 70 459 29T396 -12Q353 -12 332 13T308 84L303 86Q288 51 255 20T176 -12Q123 -12 85 14ZM237 24T262 59T308 150V245L221 226Q173 216
152 187T130 103Q130 57 149 41T192 24Q237 24 262 59Z" />
<glyph unicode="&#xe6;" glyph-name="ae" horiz-adv-x="700" d="M123 -12T85 14T46 106Q46 157 72 186T132 227T216 249L308 266V351Q308 444 215 444Q181 444 153 427T125 387Q125 377 128 372Q130 369 134 366T143 362Q161 357 170 348T180 323Q180 302 168
293T136 284Q114 284 96 301T78 350Q78 387 98 414T151 454T218 468Q261 468 298 454T357 408Q407 468 482 468Q543 468 582 435T638 352T656 248Q656 237 649 234T625 230H380Q380 129 407 71T498 12Q544 12 584 47T636 156H660Q654 83 610 36T494 -12Q428 -12
387 17T323 92H319Q303 55 263 22T176 -12Q123 -12 85 14ZM570 254Q570 334 549 389T480 444Q430 444 405 389T380 254H570ZM238 24T269 51T314 114Q308 158 308 242L221 226Q173 217 152 187T130 103Q130 57 149 41T192 24Q238 24 269 51Z" />
<glyph unicode="&#xe7;" glyph-name="ccedilla" horiz-adv-x="436" d="M211 -212T186 -196T160 -149Q160 -138 167 -130T184 -122Q207 -122 211 -154Q218 -194 251 -194Q278 -194 293 -182T308 -146Q308 -98 250 -98H209L223 -11Q170 -5 131 28T70 113T48 228Q48
294 73 349T142 436T244 468Q290 468 324 449T376 399T394 337Q394 306 378 289T339 271Q319 271 306 284T292 315Q292 333 302 345T326 361Q342 366 342 379Q342 391 332 406T299 432T244 444Q181 444 159 390T136 228Q136 120 158 66T244 12Q305 12 338 55T378
156H402Q399 116 381 77T329 13T246 -12L240 -50H266Q299 -50 322 -68T346 -122Q346 -159 322 -185T244 -212Q211 -212 186 -196Z" />
<glyph unicode="&#xe8;" glyph-name="egrave" horiz-adv-x="460" d="M124 609Q96 630 96 653Q96 667 103 675T124 684Q138 684 149 677T173 652L265 519L252 508L124 609ZM161 -12T105 51T48 226Q48 290 73 345T142 434T242 468Q303 468 342 435T398 352T416 248Q416
237 409 234T385 230H136Q136 130 164 71T258 12Q304 12 344 47T396 156H420Q414 83 370 36T254 -12Q161 -12 105 51ZM330 254Q330 334 309 389T240 444Q189 444 163 389T136 254H330Z" />
<glyph unicode="&#xe9;" glyph-name="eacute" horiz-adv-x="460" d="M215 519L307 652Q320 670 331 677T356 684Q369 684 376 676T384 653Q384 630 356 609L228 508L215 519ZM161 -12T105 51T48 226Q48 290 73 345T142 434T242 468Q303 468 342 435T398 352T416
248Q416 237 409 234T385 230H136Q136 130 164 71T258 12Q304 12 344 47T396 156H420Q414 83 370 36T254 -12Q161 -12 105 51ZM330 254Q330 334 309 389T240 444Q189 444 163 389T136 254H330Z" />
<glyph unicode="&#xea;" glyph-name="ecircumflex" horiz-adv-x="460" d="M109 521Q184 570 220 672H260Q296 570 371 521L362 508Q293 544 240 600Q186 543 118 508L109 521ZM161 -12T105 51T48 226Q48 290 73 345T142 434T242 468Q303 468 342 435T398 352T416
248Q416 237 409 234T385 230H136Q136 130 164 71T258 12Q304 12 344 47T396 156H420Q414 83 370 36T254 -12Q161 -12 105 51ZM330 254Q330 334 309 389T240 444Q189 444 163 389T136 254H330Z" />
<glyph unicode="&#xeb;" glyph-name="edieresis" horiz-adv-x="460" d="M127 548T113 562T98 596Q98 616 112 630T146 644Q166 644 180 630T194 596Q194 577 180 563T146 548Q127 548 113 562ZM315 548T301 562T286 596Q286 616 300 630T334 644Q354 644 368 630T382
596Q382 577 368 563T334 548Q315 548 301 562ZM161 -12T105 51T48 226Q48 290 73 345T142 434T242 468Q303 468 342 435T398 352T416 248Q416 237 409 234T385 230H136Q136 130 164 71T258 12Q304 12 344 47T396 156H420Q414 83 370 36T254 -12Q161 -12 105 51ZM330
254Q330 334 309 389T240 444Q189 444 163 389T136 254H330Z" />
<glyph unicode="&#xec;" glyph-name="igrave" horiz-adv-x="270" d="M16 609Q-12 630 -12 653Q-12 667 -5 675T16 684Q30 684 41 677T65 652L157 519L144 508L16 609ZM38 24H80Q92 24 97 29T102 46V410Q102 422 97 427T80 432H38V456H174V46Q174 34 179 29T196
24H238V0H38V24Z" />
<glyph unicode="&#xed;" glyph-name="iacute" horiz-adv-x="270" d="M107 519L199 652Q212 670 223 677T248 684Q261 684 268 676T276 653Q276 630 248 609L120 508L107 519ZM38 24H80Q92 24 97 29T102 46V410Q102 422 97 427T80 432H38V456H174V46Q174 34 179
29T196 24H238V0H38V24Z" />
<glyph unicode="&#xee;" glyph-name="icircumflex" horiz-adv-x="282" d="M7 521Q82 570 118 672H158Q194 570 269 521L260 508Q191 544 138 600Q84 543 16 508L7 521ZM44 24H86Q98 24 103 29T108 46V410Q108 422 103 427T86 432H44V456H180V46Q180 34 185 29T202
24H244V0H44V24Z" />
<glyph unicode="&#xef;" glyph-name="idieresis" horiz-adv-x="282" d="M40 548T26 562T11 596Q11 616 25 630T59 644Q79 644 93 630T107 596Q107 577 93 563T59 548Q40 548 26 562ZM208 548T194 562T179 596Q179 616 193 630T227 644Q247 644 261 630T275 596Q275
577 261 563T227 548Q208 548 194 562ZM50 24H92Q104 24 109 29T114 46V410Q114 422 109 427T92 432H50V456H186V46Q186 34 191 29T208 24H250V0H50V24Z" />
<glyph unicode="&#xf0;" glyph-name="eth" horiz-adv-x="500" d="M193 -12T147 20T75 108T48 228Q48 293 74 348T147 435T248 468Q280 468 311 456L314 460Q291 503 230 580L122 513L107 536L211 601Q166 658 108 712H204Q230 689 271 638L379 706L394 683L289
617Q324 574 356 525Q448 382 448 258Q448 173 421 112T349 20T248 -12Q193 -12 147 20ZM308 12T334 68T360 228Q360 331 334 387T248 444Q188 444 162 388T136 228Q136 125 162 69T248 12Q308 12 334 68Z" />
<glyph unicode="&#xf1;" glyph-name="ntilde" horiz-adv-x="540" d="M134 558Q140 594 162 620T220 646Q239 646 256 641T295 626Q314 618 327 614T355 610Q389 610 401 652L418 648Q412 612 390 586T332 560Q313 560 296 565T257 580Q238 588 225 592T197 596Q163
596 151 554L134 558ZM38 24H80Q92 24 97 29T102 46V410Q102 422 97 427T80 432H38V456H174V374L178 373Q201 421 235 444T310 468Q383 468 413 423T444 315V46Q444 34 449 29T466 24H508V0H308V24H350Q362 24 367 29T372 46V334Q372 378 355 409T295 440Q260 440
233 416T190 349T174 254V46Q174 34 179 29T196 24H238V0H38V24Z" />
<glyph unicode="&#xf2;" glyph-name="ograve" horiz-adv-x="496" d="M132 609Q104 630 104 653Q104 667 111 675T132 684Q146 684 157 677T181 652L273 519L260 508L132 609ZM193 -12T147 20T75 108T48 228Q48 293 74 348T147 435T248 468Q303 468 349 436T421
348T448 228Q448 163 422 108T349 21T248 -12Q193 -12 147 20ZM308 12T334 68T360 228Q360 331 334 387T248 444Q188 444 162 388T136 228Q136 125 162 69T248 12Q308 12 334 68Z" />
<glyph unicode="&#xf3;" glyph-name="oacute" horiz-adv-x="496" d="M223 519L315 652Q328 670 339 677T364 684Q377 684 384 676T392 653Q392 630 364 609L236 508L223 519ZM193 -12T147 20T75 108T48 228Q48 293 74 348T147 435T248 468Q303 468 349 436T421
348T448 228Q448 163 422 108T349 21T248 -12Q193 -12 147 20ZM308 12T334 68T360 228Q360 331 334 387T248 444Q188 444 162 388T136 228Q136 125 162 69T248 12Q308 12 334 68Z" />
<glyph unicode="&#xf4;" glyph-name="ocircumflex" horiz-adv-x="496" d="M117 521Q192 570 228 672H268Q304 570 379 521L370 508Q301 544 248 600Q194 543 126 508L117 521ZM193 -12T147 20T75 108T48 228Q48 293 74 348T147 435T248 468Q303 468 349 436T421
348T448 228Q448 163 422 108T349 21T248 -12Q193 -12 147 20ZM308 12T334 68T360 228Q360 331 334 387T248 444Q188 444 162 388T136 228Q136 125 162 69T248 12Q308 12 334 68Z" />
<glyph unicode="&#xf5;" glyph-name="otilde" horiz-adv-x="496" d="M106 558Q112 594 134 620T192 646Q211 646 228 641T267 626Q286 618 299 614T327 610Q361 610 373 652L390 648Q384 612 362 586T304 560Q285 560 268 565T229 580Q210 588 197 592T169 596Q135
596 123 554L106 558ZM193 -12T147 20T75 108T48 228Q48 293 74 348T147 435T248 468Q303 468 349 436T421 348T448 228Q448 163 422 108T349 21T248 -12Q193 -12 147 20ZM308 12T334 68T360 228Q360 331 334 387T248 444Q188 444 162 388T136 228Q136 125 162
69T248 12Q308 12 334 68Z" />
<glyph unicode="&#xf6;" glyph-name="odieresis" horiz-adv-x="496" d="M135 548T121 562T106 596Q106 616 120 630T154 644Q174 644 188 630T202 596Q202 577 188 563T154 548Q135 548 121 562ZM323 548T309 562T294 596Q294 616 308 630T342 644Q362 644 376
630T390 596Q390 577 376 563T342 548Q323 548 309 562ZM193 -12T147 20T75 108T48 228Q48 293 74 348T147 435T248 468Q303 468 349 436T421 348T448 228Q448 163 422 108T349 21T248 -12Q193 -12 147 20ZM308 12T334 68T360 228Q360 331 334 387T248 444Q188
444 162 388T136 228Q136 125 162 69T248 12Q308 12 334 68Z" />
<glyph unicode="&#xf7;" glyph-name="divide" horiz-adv-x="940" d="M443 456T426 473T408 518Q408 545 425 562T470 580Q497 580 514 563T532 518Q532 491 515 474T470 456Q443 456 426 473ZM48 244V284H892V244H48ZM443 -56T426 -39T408 6Q408 33 425 50T470
68Q497 68 514 51T532 6Q532 -21 515 -38T470 -56Q443 -56 426 -39Z" />
<glyph unicode="&#xf8;" glyph-name="oslash" horiz-adv-x="496" d="M48 6L99 68Q75 100 62 141T48 228Q48 293 74 348T147 435T248 468Q285 468 318 453T379 410L426 468L448 450L397 388Q421 356 434 315T448 228Q448 163 422 108T349 21T248 -12Q211 -12 178
3T117 46L70 -12L48 6ZM343 366Q316 444 248 444Q188 444 162 388T136 228Q136 169 145 124L343 366ZM308 12T334 68T360 228Q360 287 351 332L153 90Q180 12 248 12Q308 12 334 68Z" />
<glyph unicode="&#xf9;" glyph-name="ugrave" horiz-adv-x="534" d="M146 609Q118 630 118 653Q118 667 125 675T146 684Q160 684 171 677T195 652L287 519L274 508L146 609ZM157 -12T127 33T96 141V410Q96 422 91 427T74 432H32V456H168V122Q168 78 185 47T245
16Q280 16 307 40T350 107T366 202V410Q366 422 361 427T344 432H302V456H438V46Q438 34 443 29T460 24H502V0H366V82L362 83Q339 35 305 12T230 -12Q157 -12 127 33Z" />
<glyph unicode="&#xfa;" glyph-name="uacute" horiz-adv-x="534" d="M237 519L329 652Q342 670 353 677T378 684Q391 684 398 676T406 653Q406 630 378 609L250 508L237 519ZM157 -12T127 33T96 141V410Q96 422 91 427T74 432H32V456H168V122Q168 78 185 47T245
16Q280 16 307 40T350 107T366 202V410Q366 422 361 427T344 432H302V456H438V46Q438 34 443 29T460 24H502V0H366V82L362 83Q339 35 305 12T230 -12Q157 -12 127 33Z" />
<glyph unicode="&#xfb;" glyph-name="ucircumflex" horiz-adv-x="534" d="M131 521Q206 570 242 672H282Q318 570 393 521L384 508Q315 544 262 600Q208 543 140 508L131 521ZM157 -12T127 33T96 141V410Q96 422 91 427T74 432H32V456H168V122Q168 78 185 47T245
16Q280 16 307 40T350 107T366 202V410Q366 422 361 427T344 432H302V456H438V46Q438 34 443 29T460 24H502V0H366V82L362 83Q339 35 305 12T230 -12Q157 -12 127 33Z" />
<glyph unicode="&#xfc;" glyph-name="udieresis" horiz-adv-x="534" d="M149 548T135 562T120 596Q120 616 134 630T168 644Q188 644 202 630T216 596Q216 577 202 563T168 548Q149 548 135 562ZM337 548T323 562T308 596Q308 616 322 630T356 644Q376 644 390
630T404 596Q404 577 390 563T356 548Q337 548 323 562ZM157 -12T127 33T96 141V410Q96 422 91 427T74 432H32V456H168V122Q168 78 185 47T245 16Q280 16 307 40T350 107T366 202V410Q366 422 361 427T344 432H302V456H438V46Q438 34 443 29T460 24H502V0H366V82L362
83Q339 35 305 12T230 -12Q157 -12 127 33Z" />
<glyph unicode="&#xfd;" glyph-name="yacute" horiz-adv-x="530" d="M251 519L343 652Q356 670 367 677T392 684Q405 684 412 676T420 653Q420 630 392 609L264 508L251 519ZM95 -238T70 -213Q57 -201 50 -185T42 -150Q42 -137 46 -126T58 -108Q73 -93 92 -93Q115
-93 126 -107T138 -144Q138 -156 130 -172Q124 -182 124 -191Q124 -206 144 -206Q174 -206 194 -183T225 -127L252 -40L110 373Q98 405 87 418T51 432H18V456H244V432H212Q200 432 190 426T180 408Q180 391 186 375L290 68L373 342Q377 354 380 369T384 393Q384
410 374 421T348 432H324V456H506V432H483Q461 432 443 418T414 373L253 -139Q242 -176 211 -207T134 -238Q95 -238 70 -213Z" />
<glyph unicode="&#xfe;" glyph-name="thorn" horiz-adv-x="500" d="M26 -228L78 -206Q89 -201 93 -195T98 -178V608Q98 626 82 626Q75 626 66 622L36 611L26 635L142 684H170V352L176 350Q204 405 248 436T336 468Q382 468 417 439T452 349Q452 281 408 209T294
78Q238 31 170 0V-199L36 -252L26 -228ZM222 53T260 88Q309 134 336 199T364 334Q364 424 302 424Q273 424 242 395T191 321T170 232V27Q222 53 260 88Z" />
<glyph unicode="&#xff;" glyph-name="ydieresis" horiz-adv-x="530" d="M163 548T149 562T134 596Q134 616 148 630T182 644Q202 644 216 630T230 596Q230 577 216 563T182 548Q163 548 149 562ZM351 548T337 562T322 596Q322 616 336 630T370 644Q390 644 404
630T418 596Q418 577 404 563T370 548Q351 548 337 562ZM95 -238T70 -213Q57 -201 50 -185T42 -150Q42 -137 46 -126T58 -108Q73 -93 92 -93Q115 -93 126 -107T138 -144Q138 -156 130 -172Q124 -182 124 -191Q124 -206 144 -206Q174 -206 194 -183T225 -127L252
-40L110 373Q98 405 87 418T51 432H18V456H244V432H212Q200 432 190 426T180 408Q180 391 186 375L290 68L373 342Q377 354 380 369T384 393Q384 410 374 421T348 432H324V456H506V432H483Q461 432 443 418T414 373L253 -139Q242 -176 211 -207T134 -238Q95 -238
70 -213Z" />
<glyph unicode="&#x2013;" glyph-name="endash" horiz-adv-x="620" d="M60 244V280H560V244H60Z" />
<glyph unicode="&#x2014;" glyph-name="emdash" horiz-adv-x="1000" d="M60 244V280H940V244H60Z" />
<glyph unicode="&#x2018;" glyph-name="quoteleft" horiz-adv-x="280" d="M111 422T89 454Q70 480 70 525Q70 587 101 642T176 730L190 714Q153 686 130 646T106 566Q106 555 110 549T124 536Q131 532 158 532Q180 532 194 517T208 480Q208 453 190 438T150 422Q111
422 89 454Z" />
<glyph unicode="&#x2019;" glyph-name="quoteright" horiz-adv-x="280" d="M90 438Q127 466 150 506T174 586Q174 597 170 603T156 616Q149 620 122 620Q100 620 86 635T72 672Q72 699 90 714T130 730Q169 730 191 698Q210 672 210 627Q210 565 179 510T104 422L90 438Z" />
<glyph unicode="&#x201a;" glyph-name="quotesinglbase" horiz-adv-x="280" d="M90 -152Q127 -124 150 -84T174 -4Q174 7 170 13T156 26Q149 30 122 30Q100 30 86 45T72 82Q72 109 90 124T130 140Q169 140 191 108Q210 82 210 37Q210 -25 179 -80T104 -168L90 -152Z" />
<glyph unicode="&#x201c;" glyph-name="quotedblleft" horiz-adv-x="466" d="M111 422T89 454Q70 480 70 525Q70 587 101 642T176 730L190 714Q153 686 130 646T106 566Q106 555 110 549T124 536Q131 532 158 532Q180 532 194 517T208 480Q208 453 190 438T150
422Q111 422 89 454ZM297 422T275 454Q256 480 256 525Q256 587 287 642T362 730L376 714Q339 686 316 646T292 566Q292 555 296 549T310 536Q317 532 344 532Q366 532 380 517T394 480Q394 453 376 438T336 422Q297 422 275 454Z" />
<glyph unicode="&#x201d;" glyph-name="quotedblright" horiz-adv-x="466" d="M90 438Q127 466 150 506T174 586Q174 597 170 603T156 616Q149 620 122 620Q100 620 86 635T72 672Q72 699 90 714T130 730Q169 730 191 698Q210 672 210 627Q210 565 179 510T104
422L90 438ZM276 438Q313 466 336 506T360 586Q360 597 356 603T342 616Q335 620 308 620Q286 620 272 635T258 672Q258 699 276 714T316 730Q355 730 377 698Q396 672 396 627Q396 565 365 510T290 422L276 438Z" />
<glyph unicode="&#x201e;" glyph-name="quotedblbase" horiz-adv-x="466" d="M90 -152Q127 -124 150 -84T174 -4Q174 7 170 13T156 26Q149 30 122 30Q100 30 86 45T72 82Q72 109 90 124T130 140Q169 140 191 108Q210 82 210 37Q210 -25 179 -80T104 -168L90 -152ZM276
-152Q313 -124 336 -84T360 -4Q360 7 356 13T342 26Q335 30 308 30Q286 30 272 45T258 82Q258 109 276 124T316 140Q355 140 377 108Q396 82 396 37Q396 -25 365 -80T290 -168L276 -152Z" />
<glyph unicode="&#x2022;" glyph-name="bullet" horiz-adv-x="500" d="M202 240T169 273T136 354Q136 402 169 435T250 468Q298 468 331 435T364 354Q364 306 331 273T250 240Q202 240 169 273Z" />
<glyph unicode="&#x2039;" glyph-name="guilsinglleft" horiz-adv-x="330" d="M179 57T144 110T108 228Q108 293 143 346T224 428L239 413Q203 381 184 332T164 228Q164 173 183 124T239 43L224 28Q179 57 144 110Z" />
<glyph unicode="&#x203a;" glyph-name="guilsinglright" horiz-adv-x="330" d="M91 43Q127 75 146 124T166 228Q166 283 147 332T91 413L106 428Q151 399 186 346T222 228Q222 163 187 110T106 28L91 43Z" />
</font>
</defs>
</svg>
